Жан-Мишель Баския: Лучезарное дитя / Jean Michel Basquiat: The Radiant Child (Tamra Davis) [2010, Биография, DVDRip]


Статистика раздачи [Обновить пиров]
Размер:  712 MB   |    Зарегистрирован:  1 год 1 месяц   |    Скачан:  0 раз

Полного источника не было: Никогда

 
   
 
 
 

[Цитировать]

Жан-Мишель Баския: Лучезарное дитя / Jean Michel Basquiat: The Radiant Child
Год выпуска: 2010
Страна: USA
Жанр: Биография
Продолжительность: 01:33:13
Язык: английский
Перевод: Отсутствует
Русские субтитры: есть
Режиссер: Tamra Davis
Описание: Режиссер Тэмра Дэвис не только воздает должное своему другу в этом документальном фильме, но также представляет его как иконоборца. Его неоэкспрессионистская живопись появилась в то время когда в моде были минимализм и концептуальное искусство. Как успешный черный художник, он постоянно сталкивался с расизмом и провокациями. Многое можно почерпнуть из архивных материалов и интервью, в том числе с самим Баския.
Качество: DVDRip
Формат: AVI
Видео кодек: XviD
Аудио кодек: MP3
Видео: XviD MPEG-4, 592 x 336, 16:9, 927 Kbps, 29 970 fps
Аудио: MPEG-1 Layer 3, VA 32-126 kbps, 48 Khz, 2 channels

отчет MediaInfo

General
Complete name : E:\_Films & stuff\Radiant Child\RadiantChild.avi
Format : AVI
Format/Info : Audio Video Interleave
File size : 712 MiB
Duration : 1h 33mn
Overall bit rate mode : Variable
Overall bit rate : 1 067 Kbps
Writing application : Nandub v1.0rc2
Writing library : VirtualDub build 32706/release
Video
ID : 0
Format : MPEG-4 Visual
Format profile : Advanced Simple@L5
Format settings, BVOP : 2
Format settings, QPel : No
Format settings, GMC : No warppoints
Format settings, Matrix : Default (H.263)
Muxing mode : Packed bitstream
Codec ID : XVID
Codec ID/Hint : XviD
Duration : 1h 33mn
Bit rate : 927 Kbps
Width : 592 pixels
Height : 336 pixels
Display aspect ratio : 16:9
Frame rate : 29.970 fps
Color space : YUV
Chroma subsampling : 4:2:0
Bit depth : 8 bits
Scan type : Progressive
Compression mode : Lossy
Bits/(Pixel*Frame) : 0.155
Stream size : 618 MiB (87%)
Writing library : XviD 1.2.1 (UTC 2008-12-04)
Audio
ID : 1
Format : MPEG Audio
Format version : Version 1
Format profile : Layer 3
Mode : Joint stereo
Mode extension : MS Stereo
Codec ID : 55
Codec ID/Hint : MP3
Duration : 1h 33mn
Bit rate mode : Variable
Bit rate : 126 Kbps
Minimum bit rate : 32.0 Kbps
Channel(s) : 2 channels
Sampling rate : 48.0 KHz
Compression mode : Lossy
Stream size : 84.2 MiB (12%)
Alignment : Aligned on interleaves
Interleave, duration : 24 ms (0.72 video frame)
Interleave, preload duration : 147 ms
Writing library : LAME3.95
Encoding settings : -m j -V 3 -q 3 -lowpass 18 --vbr-new -b 32
[teatrix.ru].t8952.torrent 
Торрент: Зарегистрирован [ 2015-10-18 08:55 ] · 338683E36938DBDEA5494F21EA41039154E73F99

Скачать .torrent

Скачать

28 KB

Статус: проверено
Скачан: 0 раз
Размер: 712 MB
terms.php



Быстрый ответ

Имя:

      
Для отправки сообщений необходимо включить JavaScript
Показать сообщения:    

Текущее время: 11-Дек 16:56

Часовой пояс: UTC + 3


Вы можете начинать темы
Вы можете отвечать на сообщения
Вы не можете редактировать свои сообщения
Вы не можете удалять свои сообщения
Вы не можете голосовать в опросах
Вы не можете прикреплять файлы к сообщениям
Вы можете скачивать файлы