Что за хрен этот Джексон Поллок? / Who the #$&% Is Jackson Pollock? (Гарри Моусес / Harry Moses) [2006, Документальный, DVDRip]


Статистика раздачи [Обновить пиров]
Размер:  1.2 GB   |    Зарегистрирован:  1 год 1 месяц   |    Скачан:  1 раз

Полного источника не было: 7 месяцев 9 дней

 
   
 
 
 

[Цитировать]

Что за хрен этот Джексон Поллок? / Who the #$&% Is Jackson Pollock?
Год выпуска: 2006
Страна: США
Жанр: Документальный
Продолжительность: 01:14:01
Перевод: Профессиональный (двухголосый)
Русские субтитры: нет
Автор сценария и режиссер: Гарри Моусес / Harry Moses
В ролях: Тери Хортон, Тод М. Волп, Бен Хеллер, Ник Кароне, Джон Майатт, Питер Пол Биро, Томас Ховинг, Джеффри Берген, Джозеф Д. Бим, Джуди Хилл, Тери Пакуин, Билл Пейдж (все играют самих себя)
Описание: Документальная история о водительнице грузовика Тери Хортон, купившей для подруги картину за пять долларов, которой та оказывается не нужна. Узнав, что в ее руках находится подлинник полотна Джексона Поллока – культового художника ХХ столетия – Тери пытается всеми способами доказать это общественности…- -Доп. информация: Рип найден в сети (спасибо Dentje), русская дорожка записана с канала ТВ3.-Качество: DVDRip
Формат: AVI
Видео: MPEG4, XviD, 688x384 (16/9), 29.970 fps, 1 910 Kbps (0.241 bit/pixel)
Аудио #1: AC-3, 48.0 KHz, 2 ch, 192 Kbps, CBR
Аудио #2: AC-3, 48.0 KHz, 2 ch, 192 Kbps, CBR-

MediaInfo

Общее
Полное имя : ...\Who.The.Fuck.Is.Jackson.Pollock.DVDRip.XviD.AC3.Rus.Eng.avi
Формат : AVI
Формат/Информация : Audio Video Interleave
Размер файла : 1,20 Гбайт
Продолжительность : 1 ч. 14 м.
Общий поток : 2312 Кбит/сек
Название фильма : Что за хрен этот Джексон Поллок? / Who the #$&% Is Jackson Pollock? (2006)
Режиссёр : Гарри Моусес / Harry Moses
Программа кодирования : VirtualDubMod 1.5.10.3 | www.virtualdub-fr.org || (build 2550/release)
Библиотека кодирования : VirtualDubMod build 2550/release
Видео
Идентификатор : 0
Формат : MPEG-4 Visual
Профиль формата : Simple@L0
Параметр BVOP формата : Нет
Параметр QPel формата : Нет
Параметр GMC формата : Без точки перехода
Параметр матрицы формата : Default (H.263)
Идентификатор кодека : XVID
Идентификатор кодека/Подсказка : XviD
Продолжительность : 1 ч. 14 м.
Битрейт : 1910 Кбит/сек
Ширина : 688 пикс.
Высота : 384 пикс.
Соотношение сторон : 16:9
Частота кадров : 29,970 кадр/сек
Цветовое пространство : YUV
Подвыборка цветности : 4:2:0
Битовая глубина : 8 бит
Тип развёртки : Прогрессивная
Метод сжатия : С потерями
Бит/(Пиксели*Кадры) : 0.241
Размер потока : 1011 Мбайт (83%)
Библиотека кодирования : XviD 1.0.3 (UTC 2004-12-20)
Аудио #1
Идентификатор : 1
Формат : AC-3
Формат/Информация : Audio Coding 3
Расширение режима : CM (complete main)
Идентификатор кодека : 2000
Продолжительность : 1 ч. 14 м.
Вид битрейта : Постоянный
Битрейт : 192 Кбит/сек
Канал(ы) : 2 канала(ов)
Расположение каналов : Front: L R
Частота : 48,0 КГц
Битовая глубина : 16 бит
Метод сжатия : С потерями
Размер потока : 102 Мбайт (8%)
Выравнивание : Разделение по промежуткам
Продолжительность промежутка : 33 мс. (1,00 видеокадр)
Время предзагрузки промежутка : 500 ms
Заголовок : DVO (TB3) [Rus]
Аудио #2
Идентификатор : 2
Формат : AC-3
Формат/Информация : Audio Coding 3
Профиль формата : Dolby Digital
Расширение режима : CM (complete main)
Идентификатор кодека : 2000
Продолжительность : 1 ч. 14 м.
Вид битрейта : Постоянный
Битрейт : 192 Кбит/сек
Канал(ы) : 2 канала(ов)
Расположение каналов : Front: L R
Частота : 48,0 КГц
Битовая глубина : 16 бит
Метод сжатия : С потерями
Размер потока : 102 Мбайт (8%)
Выравнивание : Разделение по промежуткам
Продолжительность промежутка : 33 мс. (1,00 видеокадр)
Время предзагрузки промежутка : 500 ms
Заголовок : Original [Eng]
[teatrix.ru].t8953.torrent 
Торрент: Зарегистрирован [ 2015-10-18 08:55 ] · E861FE56D7104CEE50595727A79A034E0EDCA166

Скачать .torrent

Скачать

13 KB

Статус: проверено
Скачан: 1 раз
Размер: 1.2 GB
terms.php



Быстрый ответ

Имя:

      
Для отправки сообщений необходимо включить JavaScript
Показать сообщения:    

Текущее время: 10-Дек 02:16

Часовой пояс: UTC + 3


Вы можете начинать темы
Вы можете отвечать на сообщения
Вы не можете редактировать свои сообщения
Вы не можете удалять свои сообщения
Вы не можете голосовать в опросах
Вы не можете прикреплять файлы к сообщениям
Вы можете скачивать файлы