Музей полководца Александра Суворова [2010, Документальный, DVB]


Статистика раздачи [Обновить пиров]
Размер:  575 MB   |    Зарегистрирован:  1 год 1 месяц   |    Скачан:  0 раз

Полного источника не было: Никогда

 
   
 
 
 

[Цитировать]

Музей полководца Александра Суворова
Год выпуска: 2010
Страна: Россия
Жанр: Документальный
Продолжительность: 00:27:15
Перевод: Не требуется
Описание: Александр Васильевич Суворов признан одним из самых великих полководцев в истории. Современники называли его русским Александром Македонским, а король Франции Людовик 18 - «мечом России». Он родился в 1729 году. Несмотря на то, что Суворов рос болезненным ребенком, он всегда мечтал о военной карьере. С детства он занимался самообразованием, очень много читал, придумал целую систему закаливания, которой придерживался всю жизнь. Затем упросил отца зачислить его мушкетером в Семеновский лейб-гвардейский полк. С этого и началась его военная карьера. Суворов участвовал во многих военных кампаниях того времени. Под его командованием русские и союзные войска одержали более 60 побед. Стал кавалером всех российских и многих иностранных орденов, вручавшихся в то время. Светлейший князь Италийский, граф Рымникский, граф Священной Римской империи - эти и многие другие титулы и звания Суворов получил за успехи на военном поприще. Свой военный опыт, знание стратегии и тактики он передал в первом в России учебнике для рекрутов и офицеров - «Наука побеждать». Не случайно в конце 19 века потомки великого полководца приняли решение - посвятить Александру Васильевичу Суворову первый в России музей-мемориал.
Качество: DVB
Формат: MPEG
Видео кодек: MPEG2
Аудио кодек: MPEG1 Layer 2
Видео: MPEG2 Video 720x576 (4:3) 25.00fps ~2 700 Kbps
Аудио: MPEG Audio 48000Hz 2 channels 192 Кбит/сек

MediaInfo

H:\01__RTG_TV\Музей полководца Александра Суворова_DVB by kuzmichm2196 .mpg
General
Complete name : H:\01__RTG_TV\Музей полководца Александра Суворова_DVB by kuzmichm2196 .mpg
Format : MPEG-PS
File size : 575 MiB
Duration : 27mn 15s
Overall bit rate : 2 948 Kbps
Writing library : (c) 1998-2008 Womble Multimedia, Inc. / MPEG Video Wizard (08/2008) / Aug 25 2008
Video #224
ID : 224 (0xE0)
Format : MPEG Video
Format version : Version 2
Format profile : Main@Main
Format settings, BVOP : Yes
Format settings, Matrix : Custom
Format settings, GOP : M=3, N=24
Duration : 27mn 15s
Bit rate mode : Variable
Bit rate : 2 697 Kbps
Nominal bit rate : 15.0 Mbps
Width : 720 pixels
Height : 576 pixels
Display aspect ratio : 4:3
Frame rate : 25.000 fps
Standard : PAL
Color space : YUV
Chroma subsampling : 4:2:0
Bit depth : 8 bits
Scan type : Interlaced
Scan order : Top Field First
Compression mode : Lossy
Bits/(Pixel*Frame) : 0.260
Stream size : 526 MiB (91%)
Writing library : (c) 1998-2008 Womble Multimedia, Inc. / MPEG Video Wizard (08/2008) / Aug 25 2008
Audio #192
ID : 192 (0xC0)
Format : MPEG Audio
Format version : Version 1
Format profile : Layer 2
Duration : 27mn 15s
Bit rate mode : Constant
Bit rate : 192 Kbps
Channel(s) : 2 channels
Sampling rate : 48.0 KHz
Compression mode : Lossy
Stream size : 37.4 MiB (7%)

Скриншоты

[/URL]
[teatrix.ru].t8954.torrent 
Торрент: Зарегистрирован [ 2015-10-18 08:55 ] · 13296B7A73E0787D53F64CEB712034DD70033E68

Скачать .torrent

Скачать

12 KB

Статус: проверено
Скачан: 0 раз
Размер: 575 MB
terms.php



Быстрый ответ

Имя:

      
Для отправки сообщений необходимо включить JavaScript
Показать сообщения:    

Текущее время: 10-Дек 00:19

Часовой пояс: UTC + 3


Вы можете начинать темы
Вы можете отвечать на сообщения
Вы не можете редактировать свои сообщения
Вы не можете удалять свои сообщения
Вы не можете голосовать в опросах
Вы не можете прикреплять файлы к сообщениям
Вы можете скачивать файлы