Вологодское кружево [2011, Документальный, DVB]


Статистика раздачи [Обновить пиров]
Размер:  597 MB   |    Зарегистрирован:  1 год 1 месяц   |    Скачан:  0 раз

Полного источника не было: Никогда

 
   
 
 
 

[Цитировать]

Вологодское кружево
Год выпуска: 2011
Страна: Россия
Жанр: Документальный
Продолжительность: 00:26:08
Перевод: Не требуется
Описание: Среди русских кружевных школ Вологда всегда считалась одним из самых крупных и значимых центров. Промысел начал развиваться здесь со второй половины 16-го века, когда был открыт Северный морской путь. Город в тот период активно торговал, в Вологду прибывали иностранные купцы с товарами, в том числе и кружевными. Тогда-то местные мастерицы, взяв за основу западно-европейские образцы, и начали создавать свои, вологодские изделия. Ведущая RTG TV Надежда Лебедева на собственном опыте убедилась, насколько непросто перебирать коклюшки и выплетать замысловатые узоры.
Качество: DVB
Формат: MPEG
Видео кодек: MPEG2
Аудио кодек: MPEG1 Layer 2
Видео: MPEG2 Video 720x576 (4:3) 25.00fps ~2 900 Kbps
Аудио: MPEG Audio 48000Hz 2 channels 192 Кбит/сек

MediaInfo

H:\01__RTG_TV\Вологодское кружево_DVB by kuzmichm2196 .mpg
General
Complete name : H:\01__RTG_TV\Вологодское кружево_DVB by kuzmichm2196 .mpg
Format : MPEG-PS
File size : 597 MiB
Duration : 26mn 8s
Overall bit rate : 3 192 Kbps
Writing library : (c) 1998-2008 Womble Multimedia, Inc. / MPEG Video Wizard (08/2008) / Aug 25 2008
Video #224
ID : 224 (0xE0)
Format : MPEG Video
Format version : Version 2
Format profile : Main@Main
Format settings, BVOP : Yes
Format settings, Matrix : Custom
Format settings, GOP : M=3, N=24
Duration : 26mn 8s
Bit rate mode : Variable
Bit rate : 2 937 Kbps
Nominal bit rate : 15.0 Mbps
Width : 720 pixels
Height : 576 pixels
Display aspect ratio : 4:3
Frame rate : 25.000 fps
Standard : PAL
Color space : YUV
Chroma subsampling : 4:2:0
Bit depth : 8 bits
Scan type : Interlaced
Scan order : Top Field First
Compression mode : Lossy
Bits/(Pixel*Frame) : 0.283
Stream size : 549 MiB (92%)
Writing library : (c) 1998-2008 Womble Multimedia, Inc. / MPEG Video Wizard (08/2008) / Aug 25 2008
Audio #192
ID : 192 (0xC0)
Format : MPEG Audio
Format version : Version 1
Format profile : Layer 2
Duration : 26mn 8s
Bit rate mode : Constant
Bit rate : 192 Kbps
Channel(s) : 2 channels
Sampling rate : 48.0 KHz
Compression mode : Lossy
Delay relative to video : -40ms
Stream size : 35.9 MiB (6%)

Скриншоты

[teatrix.ru].t8955.torrent 
Торрент: Зарегистрирован [ 2015-10-18 08:55 ] · 07E01F0627F95D7228B9CEB1761A352FB8E59CFB

Скачать .torrent

Скачать

12 KB

Статус: проверено
Скачан: 0 раз
Размер: 597 MB
terms.php



Быстрый ответ

Имя:

      
Для отправки сообщений необходимо включить JavaScript
Показать сообщения:    

Текущее время: 09-Дек 20:31

Часовой пояс: UTC + 3


Вы можете начинать темы
Вы можете отвечать на сообщения
Вы не можете редактировать свои сообщения
Вы не можете удалять свои сообщения
Вы не можете голосовать в опросах
Вы не можете прикреплять файлы к сообщениям
Вы можете скачивать файлы