Третьяковка - дар бесценный! "Жизнь, Смерть, Память... (Владимир Венедиктов) [2004, Документальный цикл, DVB]


Статистика раздачи [Обновить пиров]
Размер:  512 MB   |    Зарегистрирован:  1 год 1 месяц   |    Скачан:  0 раз

Полного источника не было: Никогда

Личеров:  1  [  0 KB/s  ]   Подробная статистика пиров
 
   
 
 
 

[Цитировать]

Третьяковка - дар бесценный! "Жизнь, Смерть, Память...
Год выпуска: 2004
Страна: Россия, ООО "Наш взгляд"
Жанр: Документальный цикл
Продолжительность: 00:25:44
Перевод: Не требуется
Русские субтитры: нет
Режиссер: Владимир Венедиктов
Описание: Василий Верещагин на раме своей картины "Апофеоз войны" написал: "Посвящается всем великим завоевателям прошедшим, настоящим и будущим". Жестокое обвинение, предупреждение - приговор! Художественная летопись отечественных войн от Василия Верещагина до Виктора Попкова.
Доп. информация: автор:Надежда Нешатаева

MI

General
ID : 1 (0x1)
Complete name : C:Третьяковка - дар бесценный! Жизнь, Смерть, Память...2004_DVB_by_dean10.ts
Format : MPEG-TS
File size : 512 MiB
Duration : 25mn 44s
Overall bit rate : 2 781 Kbps
Video
ID : 251 (0xFB)
Menu ID : 1 (0x1)
Format : AVC
Format/Info : Advanced Video Codec
Format profile : Main@L3.0
Format settings, CABAC : Yes
Format settings, ReFrames : 4 frames
Codec ID : 27
Duration : 25mn 44s
Bit rate : 2 449 Kbps
Width : 720 pixels
Height : 576 pixels
Display aspect ratio : 4:3
Frame rate : 25.000 fps
Standard : Component
Color space : YUV
Chroma subsampling : 4:2:0
Bit depth : 8 bits
Scan type : Interlaced
Scan order : Top Field First
Bits/(Pixel*Frame) : 0.236
Stream size : 451 MiB (88%)
Color primaries : BT.470-6 System B, BT.470-6 System G, BT.601-6 625, BT.1358 625, BT.1700 625 PAL, BT.1700 625 SECAM
Transfer characteristics : BT.470-6 System B, BT.470-6 System G
Matrix coefficients : BT.470-6 System B, BT.470-6 System G, BT.601-6 625, BT.1358 625, BT.1700 625 PAL, BT.1700 625 SECAM, IEC 61966-2-4 601
Audio
ID : 252 (0xFC)
Menu ID : 1 (0x1)
Format : MPEG Audio
Format version : Version 1
Format profile : Layer 2
Codec ID : 3
Duration : 25mn 44s
Bit rate mode : Constant
Bit rate : 192 Kbps
Channel(s) : 2 channels
Sampling rate : 48.0 KHz
Compression mode : Lossy
Stream size : 35.4 MiB (7%)
Language : Russian
Качество: DVB
Формат: TS
Видео кодек: H.264
Аудио кодек: MPEG1
Видео: MPEG-4 AVC, 720x576, (4:3), 25 fps, 2 449 kbps
Аудио: Russian: 48 kHz, MPEG Audio, 2 ch, 192 kbps

Скриншоты

[teatrix.ru].t8959.torrent 
Торрент: Зарегистрирован [ 2015-10-18 08:55 ] · 52E5F6BDE89BBD85C438C65685151676ADF1C444

Скачать .torrent

Скачать

11 KB

Статус: проверено
Скачан: 0 раз
Размер: 512 MB
terms.php



Быстрый ответ

Имя:

      
Для отправки сообщений необходимо включить JavaScript
Показать сообщения:    

Текущее время: 08-Дек 21:07

Часовой пояс: UTC + 3


Вы можете начинать темы
Вы можете отвечать на сообщения
Вы не можете редактировать свои сообщения
Вы не можете удалять свои сообщения
Вы не можете голосовать в опросах
Вы не можете прикреплять файлы к сообщениям
Вы можете скачивать файлы