Сати. Нескучная классика... (14 выпусков, обновлён 21 сентября 2015) [2015, ток-шоу, DVB, SATRemux]


Статистика раздачи [Обновить пиров]
Размер:  13.95 GB   |    Зарегистрирован:  1 год 1 месяц   |    Скачан:  1 раз

Полного источника не было: 1 год

 
   
 
 
 

[Цитировать]

Сати. Нескучная классика...
Дата/Год выпуска: 2015
Страна: Россия
Жанр: ток-шоу
Продолжительность: 17 х ~ 39 мин.
Ведущая: Сати Спивакова
Описание: В гостях у Сати Спиваковой побывают те, кто владеет музыкальными тайнами – знаменитые пианисты и скрипачи, оперные примадонны, премьеры балетных трупп и те, кто еще только готовится приобщиться к тайнам классики – молодые виртуозы, студенты творческих вузов.
Доп. информация: Передачи с 12.01.15
Огромное спасибо spasatelee за выпуски!
качество: DVB
формат: MPG
Видео кодек: MPEG2
Видео: MPEG2 Video 720x576 (4:3) 25fps ~2815kbps
Аудио: MPEG Audio 48000Hz stereo 192kbps

Список передач

2015-01-12 Светлана Захарова
2015-01-19 Сергей Доренский
2015-01-26 Дина Кирнарская и Артем Варгафтик
2015-02-02 Яна Иванилова и Борис Березовский
2015-02-09 Зоя Богуславская
2015-02-16 Роман Виктюк и Мария Гулегина. Памяти Елены Образцовой
2015-02-23 Фанни Ардан
2015-03-16 Екатерина Мечетина, Фабио Мастранджело и Гедиминас Таранда
2015-03-23 Святославу Рихтеру посвящается...
2015-04-13 Мария Ревякина, Дмитрий Белов и Вероника Джиоева
2015-04-27 Дмитрий Бертман и Андрей Ястребов
2015-05-18 Павел Лунгин (webRip)
2015-05-25 Анна Нетребко и Юсиф Эйвазов
2015-06-01 5 лет в эфире
2015-09-07 Дина Кирнарская, Екатерина Мечетина и Михаил Хохлов
2015-09-14 Роберт Уилсон
2015-09-21 Дмитрий Корчак и Вадим Журавлев

Внимание! Раздача ведётся путём пополнения архива телепередач

Внимание! Раздача ведётся путём пополнения архива телепередач; при каждом добавлении создаётся новый торрент. Чтобы начать докачку новой передачи цикла пользователям необходимо сделать следующее:
(1) остановить скачивание,
(2) удалить старый торрент у себя из клиента (старые передачи удалять не надо),
(3) скачать новый торрент и запустить его у себя в клиенте вместо старого, при этом указать клиенту путь в старую папку куда и должно происходить скачивание новых программ.
Ваш клиент при этом должен произвести хеширование (проверку) старой папки (если не производит сам - помогите ему сделать это), и будет докачивать только те передачи, которых у вас ещё нет. Старые передачи цикла при этом не удаляются, а продолжают раздаваться!
Eсли вы уже удалили старые , то предотвратить повторную их закачку можно отжав галочку в соответствующих местах при запуске нового торрента.

MediaInfo

General
Complete name : D:\Download\Torrents\Сати. Нескучная классика 2015\2015-02-02 Яна Иванилова и Борис Березовский.mpg
Format : MPEG-PS
File size : 849 MiB
Duration : 38mn 40s
Overall bit rate mode : Variable
Overall bit rate : 3 068 Kbps
Writing library : (c) 1998-2009 Womble Multimedia, Inc. / MPEG Video Wizard (03/2009) / Jun 24 2009
Video
ID : 224 (0xE0)
Format : MPEG Video
Format version : Version 2
Format profile : Main@Main
Format settings, BVOP : Yes
Format settings, Matrix : Custom
Format settings, GOP : M=3, N=36
Duration : 38mn 40s
Bit rate mode : Variable
Bit rate : 2 815 Kbps
Maximum bit rate : 15.0 Mbps
Width : 720 pixels
Height : 576 pixels
Display aspect ratio : 4:3
Frame rate : 25.000 fps
Standard : PAL
Color space : YUV
Chroma subsampling : 4:2:0
Bit depth : 8 bits
Scan type : Interlaced
Scan order : Top Field First
Compression mode : Lossy
Bits/(Pixel*Frame) : 0.272
Time code of first frame : 00:00:00:00
Time code source : Group of pictures header
Stream size : 779 MiB (92%)
Source encoded stream size : (c) 1998-2009 Womble Multimedia, Inc. / MPEG Video Wizard (03/2009) / Jun 24 2009
Writing library : (c) 1998-2009 Womble Multimedia, Inc. / MPEG Video Wizard (03/2009) / Jun 24 2009
Audio
ID : 192 (0xC0)
Format : MPEG Audio
Format version : Version 1
Format profile : Layer 2
Duration : 38mn 40s
Bit rate mode : Constant
Bit rate : 192 Kbps
Channel(s) : 2 channels
Sampling rate : 48.0 KHz
Compression mode : Lossy
Delay relative to video : -80ms
Stream size : 53.1 MiB (6%)
Menu

Скриншоты

[teatrix.ru].t8962.torrent 
Торрент: Зарегистрирован [ 2015-10-18 08:55 ] · A1FFCA7FCC29B1B4648A49EF9DE83639B3F690BC

Скачать .torrent

Скачать

72 KB

Статус: проверено
Скачан: 1 раз
Размер: 13.95 GB
terms.php



Быстрый ответ

Имя:

      
Для отправки сообщений необходимо включить JavaScript
Показать сообщения:    

Текущее время: 03-Дек 07:36

Часовой пояс: UTC + 3


Вы можете начинать темы
Вы можете отвечать на сообщения
Вы не можете редактировать свои сообщения
Вы не можете удалять свои сообщения
Вы не можете голосовать в опросах
Вы не можете прикреплять файлы к сообщениям
Вы можете скачивать файлы