Профессия: оперная дива. Карин Деэ, меццо-сопрано / Profession Diva: Karine Deshayes, mezzo-soprano (Жан-Пьер Армане / Jean-Pierre Armanet) [2013, документальный, музыка, DVB] Original (Fre) + Sub (Rus, Eng, Fre, Deu)


Статистика раздачи [Обновить пиров]
Размер:  1.29 GB   |    Зарегистрирован:  1 год 1 месяц   |    Скачан:  0 раз

Полного источника не было: Никогда

 
   
 
 
 

[Цитировать]

Профессия: оперная дива. Карин Деэ, меццо-сопрано
Profession Diva: Karine Deshayes, mezzo-soprano- Дата/Год выпуска: 2013
Страна: Франция
Жанр: документальный, музыка
Продолжительность: 00:57:21
Перевод: Субтитры (русский перевод Е.Маньен, Éclair Group)
Русские субтитры: есть
Формат субтитров: prerendered (IDX+SUB)
Доп. информация о субтитрах: русские, английские, французские, немецкие, нидерландские, румынские
Оригинальная аудиодорожка: французский
Режиссер: Жан-Пьер Армане / Jean-Pierre Armanet
Телеканал: TV5MONDE EuropeОписание: Перед тем, как подняться на большую оперную сцену, нужно стать тем самым голосом. Но как стать им? Какую работу нужно проделать, чтобы достичь успеха в опере? И с кем? Карин Деэ рассказывает о том, как стать оперным певцом.
Доп. информация: Hot Bird (13.0°E) Europe DVB-S

качество: DVB
формат: MKV
Видео: MPEG Video 2, 720x576@1024x576 (16:9), 25 fps, ~2975 kbps avg, 0.287 bit/pixel
Аудио: MPEG Audio 2, 2 ch, 48 kHz, ~192.00 kbps avg - французский

MediaInfo

ОбщееУникальный идентификатор : 239734987155317395490096354307945055269 (0xB45B476FB017AA2F84C259CA04ECC425)Полное имя : F:\My Torrents 3\[apreder]Profession_Diva_Karine_Deshayes_mezzo-soprano(2013)DVB.mkvФормат : MatroskaВерсия формата : Version 2Размер файла : 1,29 ГбайтПродолжительность : 57 м.Режим общего битрейта : ПеременныйОбщий поток : 3231 Кбит/секДата кодирования : UTC 2015-07-26 14:29:39Программа кодирования : mkvmerge v8.2.0 ('World of Adventure') 64bitБиблиотека кодирования : libebml v1.3.1 + libmatroska v1.4.2Attachements : cover.png / cover_small.png
ВидеоИдентификатор : 1Формат : MPEG VideoВерсия формата : Version 2Профиль формата : Main@MainПараметр BVOP формата : ДаПараметр матрицы формата : ВыборочнаяПараметр GOP формата : M=4, N=12Format_Settings_PictureStructure : FrameИдентификатор кодека : V_MPEG2Идентификатор кодека/Информация : MPEG 1 or 2 VideoПродолжительность : 57 м.Вид битрейта : ПеременныйБитрейт : 2975 Кбит/секШирина : 720 пикселейВысота : 576 пикселейСоотношение сторон : 16:9Режим частоты кадров : ПостоянныйЧастота кадров : 25,000 кадров/секСтандарт вещания : PALЦветовое пространство : YUVСубдискретизация насыщенности : 4:2:0Битовая глубина : 8 битТип развёртки : ЧересстрочнаяПорядок развёртки : Верхнее поле первоеМетод сжатия : С потерямиБит/(Пиксели*Кадры) : 0.287Временной код первого кадра : 00:00:00:00Оригинал временного кода : Group of pictures headerРазмер потока : 1,19 Гбайт (92%)Default : ДаForced : Нет
АудиоИдентификатор : 2Формат : MPEG AudioВерсия формата : Version 1Профиль формата : Layer 2Режим : Joint stereoРасширение режима : Intensity Stereo + MS StereoИдентификатор кодека : A_MPEG/L2Идентификатор кодека/Подсказка : MP2Продолжительность : 57 м.Вид битрейта : ПостоянныйБитрейт : 192 Кбит/секКаналы : 2 каналаЧастота : 48,0 КГцМетод сжатия : С потерямиРазмер потока : 78,8 Мбайт (6%)Язык : FrenchDefault : ДаForced : Нет
Текст #1Идентификатор : 3Формат : VobSubИдентификатор кодека : S_VOBSUBИдентификатор кодека/Информация : Picture based subtitle format used on DVDsЯзык : RussianDefault : ДаForced : Нет
Текст #2Идентификатор : 4Формат : VobSubИдентификатор кодека : S_VOBSUBИдентификатор кодека/Информация : Picture based subtitle format used on DVDsЯзык : EnglishDefault : НетForced : Нет
Текст #3Идентификатор : 5Формат : VobSubИдентификатор кодека : S_VOBSUBИдентификатор кодека/Информация : Picture based subtitle format used on DVDsЯзык : FrenchDefault : НетForced : Нет
Текст #4Идентификатор : 6Формат : VobSubИдентификатор кодека : S_VOBSUBИдентификатор кодека/Информация : Picture based subtitle format used on DVDsЯзык : GermanDefault : НетForced : Нет
Текст #5Идентификатор : 7Формат : VobSubИдентификатор кодека : S_VOBSUBИдентификатор кодека/Информация : Picture based subtitle format used on DVDsЯзык : DutchDefault : НетForced : Нет
Текст #6Идентификатор : 8Формат : VobSubИдентификатор кодека : S_VOBSUBИдентификатор кодека/Информация : Picture based subtitle format used on DVDsЯзык : RomanianDefault : НетForced : Нет

Скриншоты

Резервные скриншоты

-[2'009]
[teatrix.ru].t8963.torrent 
Торрент: Зарегистрирован [ 2015-10-18 08:55 ] · DA116264761A32ECE145F37C06434F1026AD60FF

Скачать .torrent

Скачать

13 KB

Статус: проверено
Скачан: 0 раз
Размер: 1.29 GB
terms.php



Быстрый ответ

Имя:

      
Для отправки сообщений необходимо включить JavaScript
Показать сообщения:    

Текущее время: 11-Дек 15:00

Часовой пояс: UTC + 3


Вы можете начинать темы
Вы можете отвечать на сообщения
Вы не можете редактировать свои сообщения
Вы не можете удалять свои сообщения
Вы не можете голосовать в опросах
Вы не можете прикреплять файлы к сообщениям
Вы можете скачивать файлы