Музыка и Монархия (Эпизоды 1-4 из 4) / David Starkey's Music and Monarchy (Питер Свирси / Peter Swearsey, Кристофер Уокер / Christopher Walker) [2013, документальный, музыка, DVB] DVO (Ред Медиа)


Статистика раздачи [Обновить пиров]
Размер:  4.08 GB   |    Зарегистрирован:  1 год 1 месяц   |    Скачан:  0 раз

Полного источника не было: Никогда

 
   
 
 
 

[Цитировать]

Музыка и Монархия
David Starkey's Music and Monarchy- Дата/Год выпуска: 2013
Страна: Великобритания
Жанр: документальный, музыка
Продолжительность: 03:54:07 (4 по ~00:59:00)
Перевод: Профессиональный (двухголосый закадровый)
Доп. инфо о переводе: ТПО "Ред Медиа"
Русские субтитры: нетРежиссер: Питер Свирси / Peter Swearsey, Кристофер Уокер / Christopher Walker
Телеканал: 365 дней
Описание: Исследования доктора Дэвида Старки начинаются в XVII веке, когда религиозный конфликт угрожает не только жизни музыкантов и монархов, но и будущему монархии и славным традициям самой британской музыки. И все же, в самый разгар этих потрясений, королевская семья возглавила целую серию музыкальных прорывов - это первые камерные концерты, прото-оперы и триумфальный дебют оркестра барокко.
Доп. информация: DVB-S

качество: DVB
формат: MKV
Видео: MPEG Video 2, 720x576@768x576 (4:3), 25 fps, ~2026 kbps avg, 0.195 bit/pixel
Аудио: MPEG Audio 2, 2 ch, 48 kHz, ~192.00 kbps avg

Список выпусков/серий

01. Корона и хор / Crown and Choir02. Революция / Revolutions03. Музыка Великобритании / Great British Music04. Возвращение к корням / Reinventions

MediaInfo

ОбщееУникальный идентификатор : 201130407246892913545937052324022788335 (0x97504EB20D54CBFA800E6BD9BDD920EF)Полное имя : E:\My Torrents 2\[apreder]David_Starkey's_Music_and_Monarchy\01. Crown_and_Choir(2013)DVB.mkvФормат : MatroskaВерсия формата : Version 2Размер файла : 956 МбайтПродолжительность : 59 м.Режим общего битрейта : ПеременныйОбщий поток : 2263 Кбит/секДата кодирования : UTC 2015-04-12 11:20:54Программа кодирования : mkvmerge v7.8.0 ('River Man') 64bit built on Mar 27 2015 16:31:37Библиотека кодирования : libebml v1.3.1 + libmatroska v1.4.2
ВидеоИдентификатор : 1Формат : MPEG VideoВерсия формата : Version 2Профиль формата : Main@MainПараметр BVOP формата : ДаПараметр матрицы формата : ВыборочнаяПараметр GOP формата : VariableFormat_Settings_PictureStructure : FrameИдентификатор кодека : V_MPEG2Идентификатор кодека/Информация : MPEG 1 or 2 VideoПродолжительность : 59 м.Вид битрейта : ПеременныйБитрейт : 2026 Кбит/секШирина : 720 пикселейВысота : 576 пикселейСоотношение сторон : 4:3Режим частоты кадров : ПостоянныйЧастота кадров : 25,000 кадров/секСтандарт вещания : PALЦветовое пространство : YUVСубдискретизация насыщенности : 4:2:0Битовая глубина : 8 битТип развёртки : ЧересстрочнаяПорядок развёртки : Верхнее поле первоеМетод сжатия : С потерямиБит/(Пиксели*Кадры) : 0.195Временной код первого кадра : 00:00:00:00Оригинал временного кода : Group of pictures headerРазмер потока : 856 Мбайт (90%)Default : ДаForced : Нет
АудиоИдентификатор : 2Формат : MPEG AudioВерсия формата : Version 1Профиль формата : Layer 2Идентификатор кодека : A_MPEG/L2Идентификатор кодека/Подсказка : MP2Продолжительность : 59 м.Вид битрейта : ПостоянныйБитрейт : 192 Кбит/секКаналы : 2 каналаЧастота : 48,0 КГцМетод сжатия : С потерямиРазмер потока : 81,1 Мбайт (8%)Язык : RussianDefault : ДаForced : Нет

Скриншоты


Резервные скриншоты



-

Внимание! Раздача ведётся путём добавления новых выпусков

Внимание! Раздача ведётся путём добавления новых выпусков; при каждом добавлении создаётся новый торрент. Чтобы начать докачку нового выпуска, пользователям необходимо сделать следующее:
(1) остановить скачивание,
(2) удалить старый торрент у себя из клиента (старые серии удалять не надо),
(3) скачать новый торрент и запустить его у себя в клиенте вместо старого, при этом указать клиенту путь в старую папку куда и должно происходить скачивание новых выпусков.
Ваш клиент при этом должен произвести хеширование (проверку) старой папки (если не производит сам - помогите ему сделать это). В результате он будет докачивать только те выпуски, которых у Вас ещё нет. Старые выпуски при этом не удаляются, а продолжают раздаваться!
Eсли Вы уже удалили старые выпуски, то предотвратить их повторную закачку можно, сняв галочки в соответствующих местах при запуске нового торрента. По возможности, желательно не удалять старые выпуски как можно дольше, чтобы релизёр не только продолжал раздавать старые выпуски, но и смог сконцентрироваться на новых.
-[2'218]
[teatrix.ru].t8965.torrent 
Торрент: Зарегистрирован [ 2015-10-18 08:55 ] · E41142D7398F4018060D4E308911C8715578FF5F

Скачать .torrent

Скачать

21 KB

Статус: проверено
Скачан: 0 раз
Размер: 4.08 GB
terms.php



Быстрый ответ

Имя:

      
Для отправки сообщений необходимо включить JavaScript
Показать сообщения:    

Текущее время: 09-Дек 08:48

Часовой пояс: UTC + 3


Вы можете начинать темы
Вы можете отвечать на сообщения
Вы не можете редактировать свои сообщения
Вы не можете удалять свои сообщения
Вы не можете голосовать в опросах
Вы не можете прикреплять файлы к сообщениям
Вы можете скачивать файлы