Донских казаков ансамбль песни и пляски / Автограф на юбилейной афише [Дон ТР] (Наталья Седякина / Автор: Любовь Суркова) [2011, Док. Музыка, TVRip]


Статистика раздачи [Обновить пиров]
Размер:  278 MB   |    Зарегистрирован:  1 год 1 месяц   |    Скачан:  0 раз

Полного источника не было: Никогда

 
   
 
 
 

[Цитировать]

Донских казаков ансамбль песни и пляски / Автограф на юбилейной афише [Дон ТР]
Год выпуска: 2011
Страна: Россия
Жанр: Док. Музыка
Продолжительность: 00:29:57
Перевод: Не требуется
Русские субтитры: нет
Режиссер: Наталья Седякина / Автор: Любовь Суркова
Телеканал: Россия 1 - Дон ТР
Описание: Фильм приурочен к 75-летию академического ордена Дружбы народов Ансамбля песни и пляски донских казаков имени Анатолия Квасова.
Государственный академический Ордена Дружбы народов ансамбль песни и пляски Донских казаков был создан в 1936 году. За время своего существования глубоко определилась его творческая направленность. В основу ее были положены народно-песенные традиции Донского края. Многовековая история донского казачества, жившего вдоль величественно плавного течения реки Дон, отразилась в его прекрасной песенной культуре.
Качество: TVRip
Формат: MKV
Видео: Video: H264 700x544 25.00fps 1100Kbps
Аудио: Аудио: Dolby AC3 48000Hz stereo 192Kbps

MediaInfo

GeneralComplete name : Донских казаков ансамбль песни и пляски (Автограф на юбилейной афише) [Дон ТР] (2011).mkvFormat : MatroskaFile size : 278 MiBDuration : 29mn 57sOverall bit rate : 1 296 KbpsEncoded date : UTC 2015-03-01 20:57:31Writing application : VirtualDubMod 1.5.10.2 (build 2540/release)Writing library : libebml-0.7.5 & libmatroska-0.7.7
VideoID : 1Format : AVCFormat/Info : Advanced Video CodecFormat profile : High@L3.1Format settings, CABAC : YesFormat settings, ReFrames : 8 framesCodec ID : H264Duration : 29mn 57sBit rate : 1 100 KbpsWidth : 700 pixelsHeight : 544 pixelsDisplay aspect ratio : 1.287Frame rate : 25.000 fpsColor space : YUVChroma subsampling : 4:2:0Bit depth : 8 bitsScan type : ProgressiveBits/(Pixel*Frame) : 0.116Stream size : 231 MiB (83%)Writing library : x264 core 130 r2274bm c832fe9Encoding settings : cabac=1 / ref=8 / deblock=1:-1:-1 / analyse=0x3:0x133 / me=umh / subme=9 / psy=1 / psy_rd=1.00:0.15 / mixed_ref=1 /me_range=16 / chroma_me=1 / trellis=2 / 8x8dct=1 / cqm=0 / deadzone=21,11 / fast_pskip=1 / chroma_qp_offset=-3 / threads=6 / lookahead_threads=1 /sliced_threads=0 / nr=0 / decimate=1 / interlaced=0 / bluray_compat=0 / constrained_intra=0 / bframes=3 / b_pyramid=2 / b_adapt=2 / b_bias=0 / direct=3 /weightb=1 / open_gop=0 / weightp=2 / keyint=250 / keyint_min=25 / scenecut=40 / intra_refresh=0 / rc_lookahead=60 / rc=2pass / mbtree=1 / bitrate=1100 /ratetol=1.0 / qcomp=0.60 / qpmin=0 / qpmax=69 / qpstep=4 / cplxblur=20.0 / qblur=0.5 / ip_ratio=1.40 / aq=1:1.00
AudioID : 2Format : AC-3Format/Info : Audio Coding 3Mode extension : CM (complete main)Codec ID : 2000Duration : 29mn 57sBit rate mode : ConstantBit rate : 192 KbpsChannel(s) : 2 channelsChannel positions : Front: L RSampling rate : 48.0 KHzStream size : 41.1 MiB (15%)

Скриншоты

[teatrix.ru].t8966.torrent 
Торрент: Зарегистрирован [ 2015-10-18 08:55 ] · 2611743D4E559CCC39AD69BD445EE036103F2E2C

Скачать .torrent

Скачать

11 KB

Статус: проверено
Скачан: 0 раз
Размер: 278 MB
terms.php



Быстрый ответ

Имя:

      
Для отправки сообщений необходимо включить JavaScript
Показать сообщения:    

Текущее время: 04-Дек 21:27

Часовой пояс: UTC + 3


Вы можете начинать темы
Вы можете отвечать на сообщения
Вы не можете редактировать свои сообщения
Вы не можете удалять свои сообщения
Вы не можете голосовать в опросах
Вы не можете прикреплять файлы к сообщениям
Вы можете скачивать файлы