Музыкальный иллюминатор. Foreigner (Алексей Титов) [2011, Документальный, DVB]


Статистика раздачи [Обновить пиров]
Размер:  695 MB   |    Зарегистрирован:  1 год 3 месяца   |    Скачан:  0 раз

Полного источника не было: Никогда

 
   
 
 
 

[Цитировать]

Музыкальный иллюминатор. Foreigner
Год выпуска: 2011
Производство: ООО «Альтаир»
Жанр: Документальный
Продолжительность: 00:25:58
Перевод: Не требуется
Русские субтитры: нет
Автор и ведущий: Александр Лоевский
Режиссер: Алексей Титов
Описание: Дружба народов и объединение пролетариев всех стран - эти важные мировые лозунги оказывается на практике реализовать довольно сложнее, чем в теории, а у группы Foreigner это получилось. Ее состав символизирует способность человека преодолевать расстояния и границы ради чуда творчества…

Качество: DVB
Формат: MPG
Видео кодек: MPEG2
Аудио кодек: MP2
Видео: MPEG2 Video 720x576 (4:3) 25.00fp Bit rate 3500Kbps Constant Bits/(Pixel*Frame) 0.338
Аудио: MP2 48000Hz 2ch 192kbps

Скриншоты

MI

General
Complete name : D:\Torrent\Музыкальный иллюминатор.Foreigner.mpg
Format : MPEG-PS
File size : 695 MiB
Duration : 25mn 58s
Overall bit rate : 3 741 Kbps
Writing library : (c) 1998-2012 Womble Multimedia, Inc. / MPEG Video Wizard DVD 5.0.1.100 (03/2011) / Sep 7 2012
Video
ID : 224 (0xE0)
Format : MPEG Video
Format version : Version 2
Format profile : Main@Main
Format settings, BVOP : Yes
Format settings, Matrix : Default
Duration : 25mn 58s
Bit rate mode : Constant
Bit rate : 3 500 Kbps
Width : 720 pixels
Height : 576 pixels
Display aspect ratio : 4:3
Frame rate : 25.000 fps
Standard : PAL
Color space : YUV
Chroma subsampling : 4:2:0
Bit depth : 8 bits
Scan type : Interlaced
Scan order : Top Field First
Bits/(Pixel*Frame) : 0.338
Stream size : 646 MiB (93%)
Writing library : (c) 1998-2012 Womble Multimedia, Inc. / MPEG Video Wizard DVD 5.0.1.100 (03/2011) / Sep 7 2012
Audio
ID : 192 (0xC0)
Format : MPEG Audio
Format version : Version 1
Format profile : Layer 2
Duration : 25mn 58s
Bit rate mode : Constant
Bit rate : 192 Kbps
Channel(s) : 2 channels
Sampling rate : 48.0 KHz
Video delay : -80ms
Stream size : 35.7 MiB (5%)
[teatrix.ru].t8968.torrent 
Торрент: Зарегистрирован [ 2015-10-18 08:55 ] · D983E118952A736B637E9B634C4691684BAF846B

Скачать .torrent

Скачать

14 KB

Статус: проверено
Скачан: 0 раз
Размер: 695 MB
terms.php



Быстрый ответ

Имя:

      
Для отправки сообщений необходимо включить JavaScript
Показать сообщения:    

Текущее время: 24-Янв 12:14

Часовой пояс: UTC + 3


Вы можете начинать темы
Вы можете отвечать на сообщения
Вы не можете редактировать свои сообщения
Вы не можете удалять свои сообщения
Вы не можете голосовать в опросах
Вы не можете прикреплять файлы к сообщениям
Вы можете скачивать файлы