Александр Градский. Монолог [2009, Канал "ВРЕМЯ", Телепередача. TVRip]


Статистика раздачи [Обновить пиров]
Размер:  340 MB   |    Зарегистрирован:  1 год 1 месяц   |    Скачан:  0 раз

Полного источника не было: Никогда

 
   
 
 
 

[Цитировать]

Александр Градский. Монолог- Год выпуска: 2009 Страна: Россия
Жанр: Телепередача-Продолжительность: 00:30:08
В ролях: Александр Градский-Описание: Если кого и считать отцом русского рока - так это Александра Борисовича Градского. Основатель третьей (!) в Москве бит-группы в середине 60-х. Первый отечественный рок-музыкант, написавший музыку к кинофильму. Первый же, получивший за это международную награду. Первый, попавший на советское телевидение с длинными волосами. И первый - выступивший с такой прической в Колонном зале Дома Союзов. Первый, не побоявшийся протолкнуть на радио подпольные рок-группы и первый, игравший на сцене Большого театра в классической опере. Первый-первый-первый...-Качество: TVRip Формат: AVI
Видео кодек: XviD Аудио кодек: MP3
Видео: 640x474, 1439 Kbps 25.00 fps (QF=0.190)
Аудио: MPEG Audio Layer 3 48000 Hz stereo 128Kbps CBR

Скриншоты: кликните для увеличения


MediaInfo:

General
Format : AVI
Format/Info : Audio Video Interleave
File size : 340 MiB
Duration : 30mn 8s
Overall bit rate : 1 577 Kbps
Writing application : VirtualDubMod 1.5.10.2 (build 2540/release)
Writing library : VirtualDubMod build 2540/release
Video
ID : 0
Format : MPEG-4 Visual
Format profile : Advanced Simple@L5
Format settings, BVOP : 2
Format settings, QPel : No
Format settings, GMC : No warppoints
Format settings, Matrix : Default (MPEG)
Codec ID : XVID
Codec ID/Hint : XviD
Duration : 30mn 8s
Bit rate : 1 439 Kbps
Width : 640 pixels
Height : 474 pixels
Display aspect ratio : 4:3
Frame rate : 25.000 fps
Color space : YUV
Chroma subsampling : 4:2:0
Bit depth : 8 bits
Scan type : Progressive
Compression mode : Lossy
Bits/(Pixel*Frame) : 0.190
Stream size : 310 MiB (91%)
Writing library : XviD 1.2.1 (UTC 2008-12-04)
Audio
ID : 1
Format : MPEG Audio
Format version : Version 1
Format profile : Layer 3
Codec ID : 55
Codec ID/Hint : MP3
Duration : 30mn 7s
Bit rate mode : Constant
Bit rate : 128 Kbps
Channel(s) : 2 channels
Sampling rate : 48.0 KHz
Compression mode : Lossy
Stream size : 27.6 MiB (8%)
Alignment : Aligned on interleaves
Interleave, duration : 40 ms (1.00 video frame)
Interleave, preload duration : 504 ms
[teatrix.ru].t8969.torrent 
Торрент: Зарегистрирован [ 2015-10-18 08:55 ] · EBB58BF6EF50D4E48E4C5AA7E2ABF38AC6B2C3CC

Скачать .torrent

Скачать

14 KB

Статус: проверено
Скачан: 0 раз
Размер: 340 MB
terms.php



Быстрый ответ

Имя:

      
Для отправки сообщений необходимо включить JavaScript
Показать сообщения:    

Текущее время: 05-Дек 05:25

Часовой пояс: UTC + 3


Вы можете начинать темы
Вы можете отвечать на сообщения
Вы не можете редактировать свои сообщения
Вы не можете удалять свои сообщения
Вы не можете голосовать в опросах
Вы не можете прикреплять файлы к сообщениям
Вы можете скачивать файлы