"Один день Ивана Денисовича". 50 лет спустя... (Алексей Денисов) [2012, Документальный, SATRip]


Статистика раздачи [Обновить пиров]
Размер:  591 MB   |    Зарегистрирован:  1 год 1 месяц   |    Скачан:  0 раз

Полного источника не было: Никогда

 
   
 
 
 

[Цитировать]

"Один день Ивана Денисовича". 50 лет спустя...
Год выпуска: 2012
Страна: Россия
Жанр: Документальный
Продолжительность: 00:41:31
Перевод: Не требуется
Режиссер: Алексей Денисов
Описание: В ноябре 1962 года в журнале "Новый мир" была опубликована повесть, тогда еще никому не известного автора, работавшего учителем в рязанской школе, которая называлась "Один день Ивана Денисовича". В ней описывался один день заключенного ГУЛАГа, деревенского мужика Ивана Денисовича Шухова. Так в русской литературе впервые зазвучал голос Александра Исаевича Солженицына.
Еще до выхода "Нового мира" литературная Москва была взбудоражена слухами о новом явлении в русской литературе. 17 ноября 1962 года журнал пошел по подписчикам, а на следующий день появился в продаже. Стотысячный тираж был раскуплен практически мгновенно, в библиотеках читатели записывались в очередь на Солженицына.
Качество: SATRip
Формат: AVI
Видео кодек: DivX
Аудио кодек: MP3
Видео: DivX, 1849 Kbps, 704x384, 25.000 fps
Аудио: MP3, 128 Kbps, 44.1 Hz, 2ch
Раздача группы:
Релиз: bvsbns

MI

ОбщееПолное имя : E:\Downloads\55\Odiv.den.Ivana.Denisovicha.50.let.spystya.(2012).SATRip.aviФормат : AVIФормат/Информация : Audio Video InterleaveРазмер файла : 591 МбайтПродолжительность : 41 м.Общий поток : 1987 Кбит/секБиблиотека кодирования : VirtualDub build 24442/release
ВидеоИдентификатор : 0Формат : MPEG-4 VisualПараметр BVOP формата : 1Параметр QPel формата : НетПараметр GMC формата : Без точки переходаПараметр матрицы формата : Default (H.263)Режим смешивания : Сжатый битовый потокИдентификатор кодека : DX50Идентификатор кодека/Подсказка : DivX 5Продолжительность : 41 м.Битрейт : 1849 Кбит/секШирина : 704 пикс.Высота : 384 пикс.Соотношение сторон : 16:9Частота кадров : 25,000 кадр/секЦветовое пространство : YUVПодвыборка цветности : 4:2:0Битовая глубина : 8 битТип развёртки : ПрогрессивнаяМетод сжатия : С потерямиБит/(Пиксели*Кадры) : 0.274Размер потока : 551 Мбайт (93%)Библиотека кодирования : DivX 3013
АудиоИдентификатор : 1Формат : MPEG AudioВерсия формата : Version 1Профиль формата : Layer 3Идентификатор кодека : 55Идентификатор кодека/Подсказка : MP3Продолжительность : 41 м.Вид битрейта : ПостоянныйБитрейт : 128 Кбит/секКаналы : 2 каналаЧастота : 44,1 КГцМетод сжатия : С потерямиЗадержка видео : 1 мс.Размер потока : 38,1 Мбайт (6%)Выравнивание : Разделение по промежуткамПродолжительность промежутка : 40 мс. (1,00 видеокадр)Время предзагрузки промежутка : 500 ms

Скриншоты

[teatrix.ru].t8970.torrent 
Торрент: Зарегистрирован [ 2015-10-18 08:55 ] · F897D7B37E9C01EE12458BD61C0BC16DD131D469

Скачать .torrent

Скачать

12 KB

Статус: проверено
Скачан: 0 раз
Размер: 591 MB
terms.php



Быстрый ответ

Имя:

      
Для отправки сообщений необходимо включить JavaScript
Показать сообщения:    

Текущее время: 08-Дек 09:03

Часовой пояс: UTC + 3


Вы можете начинать темы
Вы можете отвечать на сообщения
Вы не можете редактировать свои сообщения
Вы не можете удалять свои сообщения
Вы не можете голосовать в опросах
Вы не можете прикреплять файлы к сообщениям
Вы можете скачивать файлы