Тонино Гуэрра. Смотрите на закат… / Tonino Guerra. Look At the Sunset (Олеся Фокина) [2002, документальный, творческая биография, DVB] MVO


Статистика раздачи [Обновить пиров]
Размер:  956 MB   |    Зарегистрирован:  1 год 1 месяц   |    Скачан:  0 раз

Полного источника не было: Никогда

 
   
 
 
 

[Цитировать]

Тонино Гуэрра. Смотрите на закат…
Tonino Guerra. Look At the Sunset- Год выпуска: 2002
Страна: Россия, Италия
Жанр: документальный, творческая биография
Продолжительность: 00:35:43
Перевод: Профессиональный (многоголосый, закадровый)
Русские субтитры: нет
Режиссер: Олеся Фокина
Описание: Тонино Гуэрра (16 марта 1920 - 21 марта 2012) —итальянский поэт, писатель и сценарист, писал сценарии для таких выдающихся кинорежиссёров, как Федерико Феллини, Микеланджело Антониони, Андрей Тарковский, Франческо Рози и Тео Ангелопулос. Дружил с Георгием Данелия, Юрием Любимовым, Беллой Ахмадулиной.
С 1953 года Тонино Гуэрра пишет сценарии к фильмам, которые вошли в золотой фонд классики мирового кино. Он работал с режиссёрами Джузеппе Де Сантисом, Марио Болоньини, Дамиано Дамиани, Марио Моничелли, братьями Тавиани. Для Микеланджело Антониони Тонино писал «Приключение», «Ночь», «Затмение», «Красная пустыня», «Фотоувеличение», «Забриски Пойнт», «Тайна Обервальда», «Идентификация женщины». Вместе со своим близким другом и земляком Федерико Феллини придумал пьесу «Амаркорд», которая позже превратилась в знаменитый фильм. Потом были «И корабль плывёт…» и «Джинджер и Фред». Написал сценарий документального фильма «Время путешествия» и художественного фильма «Ностальгия» для Андрея Тарковского. По прозе Тонино Гуэрры Владимир Наумов снял «Белый праздник» и «Часы без стрелок». Первым совместным проектом с известным российским мультипликатором Андреем Хржановским оказался «Лев с седой бородой», имевший невероятный успех у западных зрителей и критики, собравший множество фестивальных премий. С Хржановским же сняли фильм по рисункам Федерико Феллини «Долгое путешествие» и «Колыбельная для Сверчка», посвящённый 200-летнему юбилею Пушкина.
В середине 1970-х женился на гражданке Советского Союза Элеоноре Яблочкиной. Он подарил Лоре птичью клетку, которую стал заполнять бумажками с фразами по-итальянски: «Если у тебя есть гора снега, держи её в тени». Тонино никогда не делал банальных подарков. Подарил жене две машины, которые Лора моментально разбила. Потом небольшой домик в городке Пеннабилли. Однако чаще, как настоящий поклонник муз, дарил ей стихи. (Wikipedia)
Доп. информация: Собственная запись со спутника (канал "Время: Далекое и близкое", пакет НТВ+).
Качество: DVB
Формат: MPG
Видео кодек: MPEG2
Аудио кодек: MP2
Видео: MPEG Video 2, 720x576@1024x576 (16:9), 25 fps, ~3476 kbps avg
Аудио: 48 kHz, MPEG Audio 2, 2 ch, ~192.00 kbps avg

MediaInfo

Полное имя : H:\My Torrents\[apreder]Tonino_Guerra_Look_At_the_Sunset(2002)DVB.mpgФормат : MPEG-PSРазмер файла : 956 МбайтПродолжительность : 35 м.Режим общего битрейта : ПеременныйОбщий поток : 3742 Кбит/сек
ВидеоИдентификатор : 224 (0xE0)Формат : MPEG VideoВерсия формата : Version 2Профиль формата : Main@MainПараметр BVOP формата : ДаПараметр матрицы формата : ВыборочнаяПараметр GOP формата : M=3, N=12Продолжительность : 35 м.Вид битрейта : ПеременныйБитрейт : 3476 Кбит/секМаксимальный битрейт : 5000 Кбит/секШирина : 720 пикселейВысота : 576 пикселейСоотношение сторон : 4:3Частота кадров : 25,000 кадров/секСтандарт вещания : PALЦветовое пространство : YUVСубдискретизация насыщенности : 4:2:0Битовая глубина : 8 битТип развёртки : ЧересстрочнаяПорядок развёртки : Верхнее поле первоеМетод сжатия : С потерямиБит/(Пиксели*Кадры) : 0.335Размер потока : 888 Мбайт (93%)
АудиоИдентификатор : 192 (0xC0)Формат : MPEG AudioВерсия формата : Version 1Профиль формата : Layer 2Продолжительность : 35 м.Вид битрейта : ПостоянныйБитрейт : 192 Кбит/секКаналы : 2 каналаЧастота : 48,0 КГцМетод сжатия : С потерямиЗадержка видео : -268 мс.Размер потока : 49,1 Мбайт (5%)

Скриншоты


Скриншоты анаморфированные


-292/274√
[teatrix.ru].t8972.torrent 
Торрент: Зарегистрирован [ 2015-10-18 08:55 ] · 016F5475115781D4111FF0E84713808CE7443C43

Скачать .torrent

Скачать

19 KB

Статус: проверено
Скачан: 0 раз
Размер: 956 MB
terms.php



Быстрый ответ

Имя:

      
Для отправки сообщений необходимо включить JavaScript
Показать сообщения:    

Текущее время: 10-Дек 15:50

Часовой пояс: UTC + 3


Вы можете начинать темы
Вы можете отвечать на сообщения
Вы не можете редактировать свои сообщения
Вы не можете удалять свои сообщения
Вы не можете голосовать в опросах
Вы не можете прикреплять файлы к сообщениям
Вы можете скачивать файлы