Дэвид Боуи. Редкие архивы / David Bowie. Rare and Unseen [2010 г., документальный, DVB] VO (Первый канал)


Статистика раздачи [Обновить пиров]
Размер:  1.02 GB   |    Зарегистрирован:  1 год 1 месяц   |    Скачан:  0 раз

Полного источника не было: Никогда

 
   
 
 
 

[Цитировать]

Дэвид Боуи. Редкие архивы
David Bowie. Rare and Unseen
Год выпуска: 2010
Страна: США
Жанр: документальный
Продолжительность: 00:52:36
Перевод: студийный (одноголосый закадровый) по заказу ЗАО «Первый канал. Всемирная сеть»
Телеканал: Время
Описание: Эти плёнки были обнаружены на самых дальних полках телевизионных архивов, восстановлены, и теперь мы можем намного больше узнать про артиста, изменившего облик поп-музыки ХХ-го века.
Наиболее известный одним из своих образов – андрогинного «Зигги Стардаста», Дэвид Боуи постоянно меняет свою музыку и свой имидж. Имея за плечами десятки хитов в США и Великобритании, в этом фильме артист предстанет перед зрителями на уникальных кадрах, казавшихся утерянными.
Качество: DVB
Формат: MPG
Видео кодек: MPEG2
Видео: MPEG2 Video 704x576 (4:3) 25fps 2537kbps
Аудио: MPEG Audio 48000Hz stereo 192kbps

MI

GeneralComplete name : David Bowie - Rare and Unseen (2010).mpgFormat : MPEG-PSFile size : 1.02 GiBDuration : 52mn 36sOverall bit rate mode : VariableOverall bit rate : 2 784 KbpsWriting library : (dvd5: Jun 16 2014)
VideoID : 224 (0xE0)Format : MPEG VideoFormat version : Version 2Format profile : Main@MainFormat settings, BVOP : YesFormat settings, Matrix : CustomFormat settings, GOP : VariableDuration : 52mn 36sBit rate mode : VariableBit rate : 2 537 KbpsMaximum bit rate : 15.0 MbpsWidth : 704 pixelsHeight : 576 pixelsDisplay aspect ratio : 4:3Frame rate : 25.000 fpsStandard : PALColor space : YUVChroma subsampling : 4:2:0Bit depth : 8 bitsScan type : InterlacedScan order : Top Field FirstCompression mode : LossyBits/(Pixel*Frame) : 0.250Time code of first frame : 00:00:00:00Time code source : Group of pictures headerStream size : 955 MiB (91%)Source encoded stream size : (dvd5: Jun 16 2014)Writing library : (dvd5: Jun 16 2014)
AudioID : 192 (0xC0)Format : MPEG AudioFormat version : Version 1Format profile : Layer 2Duration : 52mn 36sBit rate mode : ConstantBit rate : 192 KbpsChannel(s) : 2 channelsSampling rate : 48.0 KHzCompression mode : LossyDelay relative to video : -40msStream size : 72.3 MiB (7%)
[teatrix.ru].t8973.torrent 
Торрент: Зарегистрирован [ 2015-10-18 08:55 ] · 9273FBE5E9ABE252CFFFFE665A5171760B3AEEE0

Скачать .torrent

Скачать

11 KB

Статус: проверено
Скачан: 0 раз
Размер: 1.02 GB
terms.php



Быстрый ответ

Имя:

      
Для отправки сообщений необходимо включить JavaScript
Показать сообщения:    

Текущее время: 05-Дек 13:30

Часовой пояс: UTC + 3


Вы можете начинать темы
Вы можете отвечать на сообщения
Вы не можете редактировать свои сообщения
Вы не можете удалять свои сообщения
Вы не можете голосовать в опросах
Вы не можете прикреплять файлы к сообщениям
Вы можете скачивать файлы