Антонио Вивальди: Четыре времени года. История хита / Le phenomene Quatre saisons / Die 4 Jahreszeiten - Ein Phanomen / Four Seasons, the History (Филипп Безиа / Philippe Beziat) [2012, документальный, музыка, DVB] DVO (Ред Медиа)


Статистика раздачи [Обновить пиров]
Размер:  959 MB   |    Зарегистрирован:  1 год 1 месяц   |    Скачан:  0 раз

Полного источника не было: Никогда

 
   
 
 
 

[Цитировать]

Четыре времени года. История хита
Le phénomène "Quatre saisons"- Дата/Год выпуска: 2012
Страна: Франция
Жанр: документальный, музыка
Продолжительность: 00:52:11
Перевод: Профессиональный (двухголосый закадровый)
Доп. инфо о переводе: ТПО "Ред Медиа"
Русские субтитры: нет
Режиссер: Филипп Безиа / Philippe Béziat
Телеканал: 365 днейОписание: "Времена года" венецианского композитора Антонио Вивальди — первые четыре из двенадцати скрипичных концертов его восьмого опуса, одни из самых знаменитых его произведений и одни из известнейших музыкальных произведений в стиле барокко. Концерты написаны в 1723 году и впервые опубликованы два года спустя. Каждый концерт посвящён одному времени года и состоит из трёх частей, соответствующих каждому месяцу. Каждому из концертов композитор предпослал сонет - своего рода литературную программу.
Доп. информация: DVB-S

качество: DVB
формат: MKV
Видео: MPEG Video 2, 720x576@768x576 (4:3), 25 fps, ~2327 kbps avg, 0.224 bit/pixel
Аудио: MPEG Audio 2, 2 ch, 48 kHz, ~192.00 kbps avg

MediaInfo

ОбщееУникальный идентификатор : 252702912028414056522422405676335180956 (0xBE1CCF7EF49D678FAAA477F943F92C9C)Полное имя : E:\My Torrents 2\[apreder]Le_phenomene_4_saisons(2012)DVB.mkvФормат : MatroskaВерсия формата : Version 2Размер файла : 959 МбайтПродолжительность : 52 м.Режим общего битрейта : ПеременныйОбщий поток : 2570 Кбит/секДата кодирования : UTC 2014-10-06 12:19:07Программа кодирования : mkvmerge v7.2.0 ('On Every Street') 64bit built on Sep 13 2014 15:52:10Библиотека кодирования : libebml v1.3.0 + libmatroska v1.4.1
ВидеоИдентификатор : 1Формат : MPEG VideoВерсия формата : Version 2Профиль формата : Main@MainПараметр BVOP формата : НетПараметр матрицы формата : ВыборочнаяИдентификатор кодека : V_MPEG2Идентификатор кодека/Информация : MPEG 1 or 2 VideoПродолжительность : 52 м.Вид битрейта : ПеременныйБитрейт : 2327 Кбит/секМаксимальный битрейт : 5446 Кбит/секШирина : 720 пикселейВысота : 576 пикселейСоотношение сторон : 4:3Режим частоты кадров : ПостоянныйЧастота кадров : 25,000 кадров/секСтандарт вещания : PALЦветовое пространство : YUVСубдискретизация насыщенности : 4:2:0Битовая глубина : 8 битТип развёртки : ЧересстрочнаяПорядок развёртки : Верхнее поле первоеМетод сжатия : С потерямиБит/(Пиксели*Кадры) : 0.224Временной код первого кадра : 00:00:00:00Оригинал временного кода : Group of pictures headerРазмер потока : 869 Мбайт (91%)Default : ДаForced : Нет
АудиоИдентификатор : 2Формат : MPEG AudioВерсия формата : Version 1Профиль формата : Layer 2Идентификатор кодека : A_MPEG/L2Идентификатор кодека/Подсказка : MP2Продолжительность : 52 м.Вид битрейта : ПостоянныйБитрейт : 192 Кбит/секКаналы : 2 каналаЧастота : 48,0 КГцМетод сжатия : С потерямиРазмер потока : 71,7 Мбайт (7%)Язык : RussianDefault : ДаForced : Нет

Скриншоты

Резервные скриншоты

-[1'785]
[teatrix.ru].t8974.torrent 
Торрент: Зарегистрирован [ 2015-10-18 08:55 ] · B2075F1CD899F2827375FAA4953DDF3EF00629E5

Скачать .torrent

Скачать

19 KB

Статус: проверено
Скачан: 0 раз
Размер: 959 MB
terms.php



Быстрый ответ

Имя:

      
Для отправки сообщений необходимо включить JavaScript
Показать сообщения:    

Текущее время: 09-Дек 18:32

Часовой пояс: UTC + 3


Вы можете начинать темы
Вы можете отвечать на сообщения
Вы не можете редактировать свои сообщения
Вы не можете удалять свои сообщения
Вы не можете голосовать в опросах
Вы не можете прикреплять файлы к сообщениям
Вы можете скачивать файлы