По Волне Моей Памяти. Золотой Винил (Олег Нестеров) ч.33 [2011-2014. Телепередача. IPTVRip]


Статистика раздачи [Обновить пиров]
Размер:  4.35 GB   |    Зарегистрирован:  1 год 1 месяц   |    Скачан:  0 раз

Полного источника не было: Никогда

 
   
 
 
 

[Цитировать]

По Волне Моей Памяти. Золотой Винил (Олег Нестеров) ч.33- Год выпуска: 2011-2014 Страна: Россия Жанр: Телепередача-Продолжительность: 8 передач (см. "Тех. данные файлов")
Режиссер: Канал "ВРЕМЯ" В ролях: Олег Нестеров-Описание: Авторская программа Олега Нестерова. Это - непринужденный разговор о любимой музыке, воспитавшей несколько поколений - с ее создателями. Те люди, которые формировали музыкальное мировоззрение целой страны расскажут нам о своей работе, интересных историях, связанных с самыми известными произведениями и поделятся планами на будущее-Список передач: По Волне Моей Памяти: А.Яхимович. Группа Цемент, Б.Алибасов, Г.Гладков, Группа Вежливый Отказ, Д.Крамер, К.Брейтбург, Севара Назархан. Золотой Винил: Единственная Моя.-Качество: IPTVRip Формат: AVI Видео кодек: XviD Аудио кодек: MP3
Видео: 704x512 ~1600 Kbps 25.00 fps
Аудио: MPEG Audio Layer 3 48000 Hz stereo 128 Kbps CBR

Тех. данные файлов:

А.Яхимович. Группа Цемент. По Волне Моей Памяти. 704x512 1600 Kbps 00:51:32
Б.Алибасов. По Волне Моей Памяти. 704x512 1600 Kbps 00:51:09
Г.Гладков. По Волне Моей Памяти. 704x512 1600 Kbps 00:49:52
Группа Вежливый Отказ. По Волне Моей Памяти. 704x512 1600 Kbps 00:50:36
Д.Крамер. По Волне Моей Памяти. 704x512 1600 Kbps 00:43:59
К.Брейтбург. По Волне Моей Памяти. 704x512 1600 Kbps 00:48:42
Севара Назархан. По Волне Моей Памяти. 704x512 1600 Kbps 00:50:19
Золотой Винил. Единственная Моя. 704x512 1600 Kbps 00:12:04

Скриншоты: кликните для увеличения


MediaInfo:

General
Format : AVI
Format/Info : Audio Video Interleave
File size : 641 MiB
Duration : 51mn 31s
Overall bit rate : 1 739 Kbps
Writing application : VirtualDubMod 1.5.10.3 | www.virtualdub-fr.org || (build 2550/release)
Writing library : VirtualDubMod build 2550/release
Video
ID : 0
Format : MPEG-4 Visual
Format profile : Advanced Simple@L5
Format settings, BVOP : Yes
Format settings, QPel : No
Format settings, GMC : No warppoints
Format settings, Matrix : Default (MPEG)
Codec ID : XVID
Codec ID/Hint : XviD
Duration : 51mn 31s
Bit rate : 1 601 Kbps
Width : 704 pixels
Height : 512 pixels
Display aspect ratio : 1.375
Frame rate : 25.000 fps
Color space : YUV
Chroma subsampling : 4:2:0
Bit depth : 8 bits
Scan type : Progressive
Compression mode : Lossy
Bits/(Pixel*Frame) : 0.178
Stream size : 590 MiB (92%)
Writing library : XviD 1.2.1 (UTC 2008-12-04)
Audio
ID : 1
Format : MPEG Audio
Format version : Version 1
Format profile : Layer 3
Codec ID : 55
Codec ID/Hint : MP3
Duration : 51mn 31s
Bit rate mode : Constant
Bit rate : 128 Kbps
Channel(s) : 2 channels
Sampling rate : 48.0 KHz
Compression mode : Lossy
Stream size : 47.2 MiB (7%)
Alignment : Aligned on interleaves
Interleave, duration : 40 ms (1.00 video frame)
Interleave, preload duration : 504 ms
Writing library : LAME3.99r
Encoding settings : -m s -V 4 -q 0 -lowpass 17 -b 128
[teatrix.ru].t8976.torrent 
Торрент: Зарегистрирован [ 2015-10-18 08:55 ] · E06EC3880B3E4088E4C4DAFF558D11467307094B

Скачать .torrent

Скачать

23 KB

Статус: проверено
Скачан: 0 раз
Размер: 4.35 GB
terms.php



Быстрый ответ

Имя:

      
Для отправки сообщений необходимо включить JavaScript
Показать сообщения:    

Текущее время: 09-Дек 20:24

Часовой пояс: UTC + 3


Вы можете начинать темы
Вы можете отвечать на сообщения
Вы не можете редактировать свои сообщения
Вы не можете удалять свои сообщения
Вы не можете голосовать в опросах
Вы не можете прикреплять файлы к сообщениям
Вы можете скачивать файлы