Реальная история научной фантастики (4 серии) / The Real History of Science Fiction (Бен Саутвелл / Ben Southwell, Энди Мозе / Andy Mosse, Роберт Мёрфи / Robert Murphy) [2014, документальный, кинематограф, DVB] MVO (24 ДОК)


Статистика раздачи [Обновить пиров]
Размер:  2.77 GB   |    Зарегистрирован:  1 год 1 месяц   |    Скачан:  0 раз

Полного источника не было: Никогда

 
   
 
 
 

[Цитировать]

Реальная история научной фантастики
The Real History of Science Fiction- Дата/Год выпуска: 2014
Страна: Великобритания, США
Жанр: документальный, кинематограф
Продолжительность: 02:52:52 (4 по ~00:43:00)
Перевод: Профессиональный (многоголосый закадровый)
Доп. инфо о переводе: 24 ДОК
Русские субтитры: нетРежиссер: Бен Саутвелл / Ben Southwell, Энди Мозе / Andy Mosse, Роберт Мёрфи / Robert Murphy
Телеканал: 24 ДОК
В ролях: Джон Карпентер, Артур Кларк, Ричард Дрейфус, Рутгер Хауэр, Джон Лэндис, Эдвард Джеймс Олмос, Дэвид Теннант, Айзек Азимов, Скотт Бакула, Вероника Картрайт, Питер Койот, Джо Данте, Роланд Эмерих, Боб Гейл, Урсула Ле Гуин, Кристофер Ллойд, Николас Мейер, Хэйли Джоэл Осмент, Пол Верховен, Питер Уэллер
Описание: Великолепный 4-х-серийный проект посвящен истории научной фантастики. Смотрите фильм, где каждая серия посвящена основным темам: роботам, инопланетянам, космосу и путешествиям во времени. Те, кто стоял у истоков жанра научной фантастики, расскажут зрителям, как создавался вымышленный мир, поражающий реалистичностью, логичностью и научной обоснованностью. Вместе с авторами можно будет попасть в прошлое, заглянуть в будущее, оказаться в параллельных мирах и недостижимых галактиках. В проекте принимают участие огромное количество знаменитостей, когда-либо участвовавших в создании сериалов и фильмов, ставших культовыми в жанре научной фантастики.
Доп. информация: DVB-S

качество: DVB
формат: MKV
Видео: MPEG Video 2, 720x576@768x576 (4:3), 25 fps, ~1876 kbps avg, 0.181 bit/pixel
Аудио: MPEG Audio 2, 2 ch, 48 kHz, ~192.00 kbps avg

Список выпусков/серий

01. Роботы / Robots02. Космос / Space03. Вторжение / Invasion04. Время / Time

MediaInfo

ОбщееУникальный идентификатор : 235170847050274192771082990425685724473 (0xB0EC41F4921C303381F06F6BB6ED8D39)Полное имя : F:\My Torrents 3\[apreder]The_Real_History_of_Science_Fiction\02. Space(2014)DVB.mkvФормат : MatroskaВерсия формата : Version 2Размер файла : 652 МбайтПродолжительность : 43 м.Режим общего битрейта : ПеременныйОбщий поток : 2110 Кбит/секДата кодирования : UTC 2015-08-09 17:02:37Программа кодирования : mkvmerge v8.2.0 ('World of Adventure') 64bitБиблиотека кодирования : libebml v1.3.1 + libmatroska v1.4.2Attachements : cover.jpg / cover_small.jpg
ВидеоИдентификатор : 1Формат : MPEG VideoВерсия формата : Version 2Профиль формата : Main@MainПараметр BVOP формата : ДаПараметр матрицы формата : ВыборочнаяПараметр GOP формата : VariableFormat_Settings_PictureStructure : FrameИдентификатор кодека : V_MPEG2Идентификатор кодека/Информация : MPEG 1 or 2 VideoПродолжительность : 43 м.Вид битрейта : ПеременныйБитрейт : 1876 Кбит/секШирина : 720 пикселейВысота : 576 пикселейСоотношение сторон : 4:3Режим частоты кадров : ПостоянныйЧастота кадров : 25,000 кадров/секСтандарт вещания : PALЦветовое пространство : YUVСубдискретизация насыщенности : 4:2:0Битовая глубина : 8 битТип развёртки : ЧересстрочнаяПорядок развёртки : Верхнее поле первоеМетод сжатия : С потерямиБит/(Пиксели*Кадры) : 0.181Временной код первого кадра : 00:00:00:00Оригинал временного кода : Group of pictures headerРазмер потока : 580 Мбайт (89%)Default : ДаForced : Нет
АудиоИдентификатор : 2Формат : MPEG AudioВерсия формата : Version 1Профиль формата : Layer 2Идентификатор кодека : A_MPEG/L2Идентификатор кодека/Подсказка : MP2Продолжительность : 43 м.Вид битрейта : ПостоянныйБитрейт : 192 Кбит/секКаналы : 2 каналаЧастота : 48,0 КГцМетод сжатия : С потерямиРазмер потока : 59,3 Мбайт (9%)Язык : RussianDefault : ДаForced : Нет

Скриншоты


Резервные скриншоты


-[2'541]
[teatrix.ru].t8978.torrent 
Торрент: Зарегистрирован [ 2015-10-18 08:55 ] · 2D66EF170E9C8B8D0109A765B204B77074DD1FB1

Скачать .torrent

Скачать

15 KB

Статус: проверено
Скачан: 0 раз
Размер: 2.77 GB
terms.php



Показать сообщения:    

Текущее время: 09-Дек 20:31

Часовой пояс: UTC + 3


Вы не можете начинать темы
Вы не можете отвечать на сообщения
Вы не можете редактировать свои сообщения
Вы не можете удалять свои сообщения
Вы не можете голосовать в опросах
Вы не можете прикреплять файлы к сообщениям
Вы можете скачивать файлы