Загадка "Плетёного человека" / The Wicker Man Enigma (Дэвид Грегори / David Gregory) [2001, Документальный видеофильм, DVDRip], перевод Oneinchnales


Статистика раздачи [Обновить пиров]
Размер:  312 MB   |    Зарегистрирован:  1 год 1 месяц   |    Скачан:  0 раз

Полного источника не было: Никогда

 
   
 
 
 

[Цитировать]

Загадка "Плетёного человека"
The Wicker Man Enigma-- Год выпуска: 2001
Страна: США
Жанр: Документальный видеофильм
Продолжительность: 00:34:33-Перевод: Одноголосый закадровый Oneinchnales
Русские субтитры: есть-Режиссер:
Дэвид Грегори / David Gregory-Описание: Документальный фильм, рассказывающий о процессе создания
культового британского хоррора "Плетёный человек".-Доп. информация: Перевод и озвучание © Oneinchnales.
Отзывы приветствуются.
Прошу всех любителей старого жанрового кино помочь с раздачей.
- -
Качество: DVDRip
Формат: AVI
Видео: 560x432 (4:3), 23,976 fps, XviD MPEG-4, 865 kbps avg, 0.149 bit/pixel
Аудио 1: 48 kHz, AC-3, 2 ch, CBR 192.00 kbps (русский VO Oneinchnales)
Аудио 2: 48 kHz, AC-3, 2 ch, CBR 192.00 kbps (оригинальная английская дорожка)

MediaInfo

Общее
Полное имя : 02.Zagadka.Pletenogo.cheloveka.(2001).DVDRip.Xvid.AC3.Dual_Oneinchnales.avi.avi
Формат : AVI
Формат/Информация : Audio Video Interleave
Размер файла : 312 Мбайт
Продолжительность : 34 м.
Общий поток : 1263 Кбит/сек
Программа кодирования : VirtualDubMod 1.5.10.2 (build 2542/release)
Библиотека кодирования : VirtualDubMod build 2542/release
Видео
Идентификатор : 0
Формат : MPEG-4 Visual
Профиль формата : Advanced Simple@L5
Параметр BVOP формата : 2
Параметр QPel формата : Нет
Параметр GMC формата : Без точки перехода
Параметр матрицы формата : Default (H.263)
Идентификатор кодека : XVID
Идентификатор кодека/Подсказка : XviD
Продолжительность : 34 м.
Битрейт : 865 Кбит/сек
Ширина : 560 пикселей
Высота : 432 пикселя
Соотношение сторон : 4:3
Частота кадров : 23,976 кадра/сек
Цветовое пространство : YUV
Субдискретизация насыщенности : 4:2:0
Битовая глубина : 8 бит
Тип развёртки : Прогрессивная
Метод сжатия : С потерями
Бит/(Пиксели*Кадры) : 0.149
Размер потока : 214 Мбайт (68%)
Библиотека кодирования : XviD 64
Аудио #1
Идентификатор : 1
Формат : AC-3
Формат/Информация : Audio Coding 3
Расширение режима : CM (complete main)
Параметр Endianness формата : Big
Идентификатор кодека : 2000
Продолжительность : 34 м.
Вид битрейта : Постоянный
Битрейт : 192 Кбит/сек
Каналы : 2 канала
Расположение каналов : Front: L R
Частота : 48,0 КГц
Битовая глубина : 16 бит
Метод сжатия : С потерями
Задержка видео : 200 мс.
Размер потока : 47,5 Мбайт (15%)
Выравнивание : Разделение по промежуткам
Продолжительность промежутка : 42 мс. (1,00 видеокадр)
Время предзагрузки промежутка : 500 мс.
Аудио #2
Идентификатор : 2
Формат : AC-3
Формат/Информация : Audio Coding 3
Расширение режима : CM (complete main)
Параметр Endianness формата : Big
Идентификатор кодека : 2000
Продолжительность : 34 м.
Вид битрейта : Постоянный
Битрейт : 192 Кбит/сек
Каналы : 2 канала
Расположение каналов : Front: L R
Частота : 48,0 КГц
Битовая глубина : 16 бит
Метод сжатия : С потерями
Размер потока : 47,5 Мбайт (15%)
Выравнивание : Разделение по промежуткам
Продолжительность промежутка : 42 мс. (1,00 видеокадр)
Время предзагрузки промежутка : 500 мс.
[teatrix.ru].t8979.torrent 
Торрент: Зарегистрирован [ 2015-10-18 08:55 ] · A76096F81763942CE61FCE498A673170383C8261

Скачать .torrent

Скачать

25 KB

Статус: проверено
Скачан: 0 раз
Размер: 312 MB
terms.php



Показать сообщения:    

Текущее время: 09-Дек 14:39

Часовой пояс: UTC + 3


Вы не можете начинать темы
Вы не можете отвечать на сообщения
Вы не можете редактировать свои сообщения
Вы не можете удалять свои сообщения
Вы не можете голосовать в опросах
Вы не можете прикреплять файлы к сообщениям
Вы можете скачивать файлы