На съемках фильма Фантомас разбушевался / Film Fantomas [14.08.1965, документальный, кинематограф, IPTVRip-AVC] Original (Fra) + Sub (Rus)


Статистика раздачи [Обновить пиров]
Размер:  30 MB   |    Зарегистрирован:  1 год 1 месяц   |    Скачан:  0 раз

Полного источника не было: Никогда

Личеров:  1  [  0 KB/s  ]   Подробная статистика пиров
 
   
 
 
 

[Цитировать]

На съемках фильма "Фантомас разбушевался"
Film Fantômas- Дата/Год выпуска: 14.08.1965
Страна: Франция
Жанр: документальный, кинематограф
Продолжительность: 00:02:28
Перевод: Субтитры
Русские субтитры: естьФормат субтитров: softsub (SRT)
Доп. информация о субтитрах: перевод Алексей Королев, инициатор Алексей Проскуряков aka Aleks Punk
Оригинальная аудиодорожка: французский
Режиссер: не известен
Телеканал: ina
Описание: Интервью для канала ORTF у Милен Демонжо, Жана Маре и Луи де Фюнеса на съемочной площадке фильма "Фантомас разбушевался" берет журналист Франсуа Гай / François Gay.
Доп. информация: За предоставленный материал благодарность Aleks Punk.

качество: IPTVRip-AVC
формат: MKV
Видео: AVC (H.264), 640x480 (4:3), 25 fps, ~1500 kbps avg, 0.195 bit/pixel
Аудио: AC3, 2 ch, 48 kHz, ~192.00 kbps avg

Пример субтитров

100:00:00,780 --> 00:00:03,500Чуть больше года спустяпосле выхода в свет "Фантомаса",
200:00:03,660 --> 00:00:08,860Андре Юнебель, в студиях "Бийанкур"снимает продолжение фильма по творчеству Марселя Аллена.
300:00:09,020 --> 00:00:10,980"Фантомас возвращается".
400:00:11,180 --> 00:00:16,500В фильме снимаются Жан Маре, Луи де Фюнес, Жак Динам и Милен Демонжо.
500:00:18,540 --> 00:00:21,540- Милен Демонжо, кто вам прислалэто великолепное платье?
600:00:21,740 --> 00:00:24,420- Фантомас.- Фантомас? И почему же?
700:00:24,780 --> 00:00:28,220- Потому что... Вы знаете, что япо-прежнему фотограф,
800:00:28,300 --> 00:00:32,700но я попадаю в сети Фантомаса,и Фантомас, еще с первого фильма,
900:00:32,780 --> 00:00:38,140влюблен в меня. И в определенный моментон полностью меня подчиняет,я должна покориться ему.
1000:00:38,300 --> 00:00:41,060Я получаю приглашение на бал,
1100:00:41,180 --> 00:00:46,060в платье, я должна идти на бал,и тут вовлекаются Жан Маре и Луи де Фюнес,
1200:00:46,180 --> 00:00:52,740они следуют за мной, ониспешат мне на помощь... И так мы оказываемся -я - Шахерезадой, Луи - Наполеоном
1300:00:52,900 --> 00:00:55,220и Жан ???
1400:00:55,620 --> 00:00:59,860На выходе с бала-маскарада Фантомасуудалось завлечь в свой ??
1500:00:59,980 --> 00:01:02,540декорации стоили 500 тыс. франков,-
1600:01:02,660 --> 00:01:06,180комиссара Жюва, Фандора и Элен.
1700:01:22,140 --> 00:01:26,300Для Жана Маре и Луи де Фюнеса,второй Фантомас, как и первый,
1800:01:26,460 --> 00:01:28,780требует больших физических затрат.
1900:01:35,380 --> 00:01:38,540В артистическом плане было так жетрудно, как в первом фильме?
2000:01:38,700 --> 00:01:43,020- Не думаю, нет, для меня нет.- Нет...- По крайней мере...- По крайней мере?

MediaInfo

Общее
Уникальный идентификатор : 234171399491091660735723083253792412807 (0xB02BC562DEE0F3FB92184A03E4F09487)
Полное имя : H:\My Torrents\[apreder]Film_Fantomas(14.08.1965)IPTVRip.mkv
Формат : Matroska
Версия формата : Version 2
Размер файла : 30,0 Мбайт
Продолжительность : 2 м. 28 с.
Общий поток : 1698 Кбит/сек
Дата кодирования : UTC 2015-05-03 09:29:54
Программа кодирования : mkvmerge v7.8.0 ('River Man') 64bit built on Mar 27 2015 16:31:37
Библиотека кодирования : libebml v1.3.1 + libmatroska v1.4.2
Видео
Идентификатор : 1
Формат : AVC
Формат/Информация : Advanced Video Codec
Профиль формата : High@L4.1
Параметр CABAC формата : Да
Параметр ReFrames формата : 16 кадров
Идентификатор кодека : V_MPEG4/ISO/AVC
Продолжительность : 2 м. 28 с.
Битрейт : 1500 Кбит/сек
Ширина : 640 пикселей
Высота : 480 пикселей
Соотношение сторон : 4:3
Режим частоты кадров : Постоянный
Частота кадров : 25,000 кадров/сек
Цветовое пространство : YUV
Субдискретизация насыщенности : 4:2:0
Битовая глубина : 8 бит
Тип развёртки : Прогрессивная
Бит/(Пиксели*Кадры) : 0.195
Размер потока : 26,0 Мбайт (87%)
Библиотека кодирования : x264 core 146 r2538 121396c
Настройки программы : cabac=1 / ref=16 / deblock=1:-1:-1 / analyse=0x3:0x133 / me=umh / subme=10 / psy=1 / psy_rd=1.00:0.15 / mixed_ref=1 / me_range=24 / chroma_me=1 / trellis=2 / 8x8dct=1 / cqm=0 / deadzone=21,11 / fast_pskip=1 / chroma_qp_offset=-3 / threads=6 / lookahead_threads=1 / sliced_threads=0 / nr=0 / decimate=1 / interlaced=0 / bluray_compat=0 / constrained_intra=0 / bframes=8 / b_pyramid=2 / b_adapt=2 / b_bias=0 / direct=3 / weightb=1 / open_gop=0 / weightp=2 / keyint=250 / keyint_min=25 / scenecut=40 / intra_refresh=0 / rc_lookahead=60 / rc=2pass / mbtree=1 / bitrate=1500 / ratetol=1.0 / qcomp=0.60 / qpmin=0 / qpmax=69 / qpstep=4 / cplxblur=20.0 / qblur=0.5 / vbv_maxrate=62500 / vbv_bufsize=78125 / nal_hrd=none / filler=0 / ip_ratio=1.40 / aq=1:1.00
Default : Да
Forced : Нет
Аудио
Идентификатор : 2
Формат : AC-3
Формат/Информация : Audio Coding 3
Расширение режима : CM (complete main)
Параметр Endianness формата : Big
Идентификатор кодека : A_AC3
Продолжительность : 2 м. 28 с.
Вид битрейта : Постоянный
Битрейт : 192 Кбит/сек
Каналы : 2 канала
Расположение каналов : Front: L R
Частота : 48,0 КГц
Битовая глубина : 16 бит
Метод сжатия : С потерями
Размер потока : 3,39 Мбайт (11%)
Язык : French
Default : Да
Forced : Нет
Текст
Идентификатор : 3
Формат : UTF-8
Идентификатор кодека : S_TEXT/UTF8
Идентификатор кодека/Информация : UTF-8 Plain Text
Язык : Russian
Default : Да
Forced : Нет

Скриншоты

Резервные скриншоты

-[2'255]
[teatrix.ru].t8980.torrent 
Торрент: Зарегистрирован [ 2015-10-18 08:55 ] · 77183B9244E5FA619CD00AC0C27115F96A769BB9

Скачать .torrent

Скачать

10 KB

Статус: проверено
Скачан: 0 раз
Размер: 30 MB
terms.php



Показать сообщения:    

Текущее время: 09-Дек 20:24

Часовой пояс: UTC + 3


Вы не можете начинать темы
Вы не можете отвечать на сообщения
Вы не можете редактировать свои сообщения
Вы не можете удалять свои сообщения
Вы не можете голосовать в опросах
Вы не можете прикреплять файлы к сообщениям
Вы можете скачивать файлы