Робер Оссейн: интервью каналу RTF / Cinepanorama: Robert Hossein RTF Interview (Франсуа Шале / Francois Chalais) [06.06.1964, документальный, кинематограф, DVDRip-AVC] Original (Fre) + Sub (Rus)


Статистика раздачи [Обновить пиров]
Размер:  80 MB   |    Зарегистрирован:  1 год 1 месяц   |    Скачан:  0 раз

Полного источника не было: Никогда

 
   
 
 
 

[Цитировать]

Робер Оссейн: интервью каналу RTF
Cinépanorama: Robert Hossein RTF Interview- Дата/Год выпуска: 06.06.1964
Страна: Франция
Жанр: документальный, кинематограф
Продолжительность: 00:06:34
Перевод: Субтитры
Русские субтитры: есть
Формат субтитров: softsub (SRT)
Доп. информация о субтитрах: инициатор Aleks Punk
Оригинальная аудиодорожка: французский
Режиссер: Франсуа Шале / François ChalaisОписание: Самый большой успех Робер Оссейн имел в роли графа Тулузского Жоффрея де Пейрака в экранизациях Бернара Бордери пяти романов Анн и Серж Голон об Анжелике, где его партнёршей стала французская актриса Мишель Мерсье. Интервью после выхода первого фильма цикла "Анжелика — маркиза ангелов" берет журналист, киновед, писатель и режиссер Франсуа Шале / François Chalais, в честь которого ежегодно вручается приз за заслуги в журналистике на кинофестивале в Каннах.
Доп. информация: Интервью вышло на 3-х-дисковом DVD-сборнике "Reflets de Cannes & Cinépanorama" в 2011 году. За предоставленный материал благодарность Aleks Punk.

качество: DVDRip-AVC
формат: MKV
Видео: AVC (H.264), 640x480 (4:3), 25 fps, ~1500 kbps avg, 0.195 bit/pixel
Аудио: AC3, 2 ch, 48 kHz, ~192.00 kbps avg

Пример субтитров

100:00:04,620 --> 00:00:07,900- Робер Оссейн, мы как-тобеседовали с вами,
200:00:08,020 --> 00:00:18,420я сказал вам в шутку, что для меня Робер Оссейн - это актер, который хотел бы быть автором, который не прочь побыть режиссером...
300:00:18,540 --> 00:00:22,620То есть ты никогда не знаешь с кем имеешь дело, когда речь заходит о вас.Вы сами знаете?
400:00:23,620 --> 00:00:26,580- Нет, то есть я никогда не знаю кто я в данный момент.
500:00:26,660 --> 00:00:29,620Но я отлично знаю, кем я хотел бы быть.- Ага, объясните, пожалуйста.
600:00:30,540 --> 00:00:35,140- Не знаю... Я актер и обожаю моюпрофессию, но...
700:00:35,460 --> 00:00:40,540 мне кажется, что я лучше делаю эту работу, если роль, которую мне нужно сыграть, для меня интереснее, чем другие роли.
800:00:40,660 --> 00:00:44,060И тогда я мечтаю быть хорошим режиссером.
900:00:44,180 --> 00:00:51,220Поэтому мне кажется, что я все еще в поиске,я продолжаю учиться профессии
1000:00:51,580 --> 00:00:58,300как можно лучше, потому что мне это очень нравится... Я не занимаюсь этим только для того, чтобы заниматься режиссурой.
1100:00:59,620 --> 00:01:03,580Что касается авторства, я думаю, чтоавтор я совсем вторичный.
1200:01:03,700 --> 00:01:08,820Я не автор, я часто сочиняю сюжеты,которые я играю...
1300:01:08,900 --> 00:01:15,900Но потом есть адаптаторы и авторы диалогов, которые отлично с этим справляются.Я не претендую на то, чтобы заниматьсявсеми этими профессиями сразу,
1400:01:16,100 --> 00:01:19,500Мне трудно уже быть просто актером.
1500:01:19,580 --> 00:01:22,700- А если я вас, например, спрошу, какая у вас профессия. Что вы ответите?
1600:01:23,700 --> 00:01:25,940- Трудно так сходу ответить,наверно актер.
1700:01:26,100 --> 00:01:32,260Но мечтаю стать режиссером, я мечтаю, может быть, стать режиссером в тот день,когда ясно пойму,что могу быть режиссером.
1800:01:32,420 --> 00:01:37,540- Я думаю, что вы ищете в вашей профессии, в том,чем вы занимаетесь,- Да.
1900:01:37,660 --> 00:01:40,300- чего-то большего, чем реализм или идеализм - удовольствия.
2000:01:40,620 --> 00:01:49,780- Удовольствие, да, но наверно все-таки...удовольствие не только для меня,это удовольствие я хотел бы

MediaInfo

Общее
Уникальный идентификатор : 241527653860067546579746542652832973737 (0xB5B488BA8F324FF7A5CA8DE68B3583A9)
Полное имя : E:\My Torrents 2\[apreder]Cinepanorama_Robert_Hossein_RTF_Interview(1964)DVDRip.mkv
Формат : Matroska
Версия формата : Version 2
Размер файла : 79,6 Мбайт
Продолжительность : 6 м. 34 с.
Общий поток : 1694 Кбит/сек
Дата кодирования : UTC 2015-02-21 13:19:46
Программа кодирования : mkvmerge v7.6.0 ('Garden of Dreams') 64bit built on Feb 8 2015 13:04:34
Библиотека кодирования : libebml v1.3.1 + libmatroska v1.4.2
Видео
Идентификатор : 1
Формат : AVC
Формат/Информация : Advanced Video Codec
Профиль формата : High@L4.1
Параметр CABAC формата : Да
Параметр ReFrames формата : 16 кадров
Идентификатор кодека : V_MPEG4/ISO/AVC
Продолжительность : 6 м. 34 с.
Битрейт : 1500 Кбит/сек
Ширина : 640 пикселей
Высота : 480 пикселей
Соотношение сторон : 4:3
Режим частоты кадров : Постоянный
Частота кадров : 25,000 кадров/сек
Цветовое пространство : YUV
Субдискретизация насыщенности : 4:2:0
Битовая глубина : 8 бит
Тип развёртки : Прогрессивная
Бит/(Пиксели*Кадры) : 0.195
Размер потока : 69,0 Мбайт (87%)
Библиотека кодирования : x264 core 144 r2525 40bb568
Настройки программы : cabac=1 / ref=16 / deblock=1:-1:-1 / analyse=0x3:0x133 / me=umh / subme=10 / psy=1 / psy_rd=1.00:0.15 / mixed_ref=1 / me_range=24 / chroma_me=1 / trellis=2 / 8x8dct=1 / cqm=0 / deadzone=21,11 / fast_pskip=1 / chroma_qp_offset=-3 / threads=6 / lookahead_threads=1 / sliced_threads=0 / nr=0 / decimate=1 / interlaced=0 / bluray_compat=0 / constrained_intra=0 / bframes=8 / b_pyramid=2 / b_adapt=2 / b_bias=0 / direct=3 / weightb=1 / open_gop=0 / weightp=2 / keyint=250 / keyint_min=25 / scenecut=40 / intra_refresh=0 / rc_lookahead=60 / rc=2pass / mbtree=1 / bitrate=1500 / ratetol=1.0 / qcomp=0.60 / qpmin=0 / qpmax=69 / qpstep=4 / cplxblur=20.0 / qblur=0.5 / vbv_maxrate=62500 / vbv_bufsize=78125 / nal_hrd=none / filler=0 / ip_ratio=1.40 / aq=1:1.00
Default : Да
Forced : Нет
Аудио
Идентификатор : 2
Формат : AC-3
Формат/Информация : Audio Coding 3
Расширение режима : CM (complete main)
Параметр Endianness формата : Big
Идентификатор кодека : A_AC3
Продолжительность : 6 м. 34 с.
Вид битрейта : Постоянный
Битрейт : 192 Кбит/сек
Каналы : 2 канала
Расположение каналов : Front: L R
Частота : 48,0 КГц
Битовая глубина : 16 бит
Метод сжатия : С потерями
Размер потока : 9,02 Мбайт (11%)
Default : Да
Forced : Нет
Текст
Идентификатор : 3
Формат : UTF-8
Идентификатор кодека : S_TEXT/UTF8
Идентификатор кодека/Информация : UTF-8 Plain Text
Язык : Russian
Default : Да
Forced : Нет

Скриншоты

Резервные скриншоты

-[2'126]
[teatrix.ru].t8982.torrent 
Торрент: Зарегистрирован [ 2015-10-18 08:55 ] · 0E44208021CC8D92CF9500678A442733613B5FE2

Скачать .torrent

Скачать

13 KB

Статус: проверено
Скачан: 0 раз
Размер: 80 MB
terms.php



Показать сообщения:    

Текущее время: 11-Дек 01:26

Часовой пояс: UTC + 3


Вы не можете начинать темы
Вы не можете отвечать на сообщения
Вы не можете редактировать свои сообщения
Вы не можете удалять свои сообщения
Вы не можете голосовать в опросах
Вы не можете прикреплять файлы к сообщениям
Вы можете скачивать файлы