Игра в бисер с Игорем Волгиным (канал Россия Культура) [2011-2012, Ток-шоу, DVB] Обновлено 05.06.2012


Статистика раздачи [Обновить пиров]
Размер:  19.37 GB   |    Зарегистрирован:  1 год 1 месяц   |    Скачан:  0 раз

Полного источника не было: Никогда

Личеров:  1  [  0 KB/s  ]   Подробная статистика пиров
 
   
 
 
 

[Цитировать]

Игра в бисер с Игорем Волгиным
Год выпуска: 2011-12
Страна: Россия
Жанр: Ток-шоу
Продолжительность: ~ по 00:39:00 выпуск
Перевод: Не требуется
Русские субтитры: нет
Режиссер: канал Россия Культура
Описание: Когда мы говорим, что классика всегда современна, мы не задумываемся, что именно в созданном десятилетия, а то и века назад художественном произведении созвучно дню сегодняшнему, представлению современного человека о себе самом. Участники нового ток-шоу «Игра в бисер» с Игорем Волгиным попытаются найти ответы на этот вопрос и, заглянув в лучшие образцы мировой литературы, понять - кто мы и что мы.
По мнению создателей ток-шоу, «Игра в бисер» - это своеобразная игра ума для всех, кто ищет глубинную связь между событиями и явлениями; кто пытается обнаружить новый смысл в привычных взгляду вещах; кто воспринимает мировую литературу как уже написанную книгу, которую никто и никогда не постигнет до конца, но, тем не менее, каждое новое прочтение удивительно и откровенно.
В свое время роман Германа Гессе «Игра в бисер» стал откровением для читателей, которые вместе с героями книги прикоснулись к заветным тайнам Игры и узнали, что возможен некий абстрактный синтез искусства и точной науки, чувственного и материального, вечного и сиюминутного. В ток-шоу, также как и в романе, действие разворачивается вокруг «ордена интеллектуалов». В студии – четверо современных мудрецов, которые будут обсуждать одно из произведений мировой литературы и попытаются осуществить его проекцию на современную жизнь. Среди них – философы, критики, писатели, поэты, актёры и режиссёры.
Доп. информация: Эфир телеканала Россия Культура по вторникам вечером
Внимание! Раздача ведётся путём добавления новых выпусков; при каждом добавлении создаётся новый торрент.
Качество: DVB
Формат: MPEG-PS
Видео кодек: MPEG2
Аудио кодек: MP2
Видео: 768@704x576, 25 fps, MPEG-PS 2377 - 2794 kbps, 0.234 - 0.276 bit/pixel
Аудио: MPEG-1 Layer 2, 48000Hz 192 kb/s , 2 chanal

MediaInfo Первый выпуск

Общее
Полное имя : C:\Игра в бисер c Игорем Волгиным. Сезон 2011-2012\2011-11-15. И.С. Тургенев - Отцы и дети.mpg
Формат : MPEG-PS
Размер файла : 841 Мбайт
Продолжительность : 39 м.
Общий поток : 2989 Кбит/сек
Библиотека кодирования : (c) 1998-2008 Womble Multimedia, Inc. / MPEG Video Wizard (12/2008) / Mar 31 2009
Видео
Идентификатор : 224 (0xE0)
Формат : MPEG Video
Версия формата : Version 2
Профиль формата : Main@Main
Параметр BVOP формата : Да
Параметр матрицы формата : Выборочная
Продолжительность : 39 м.
Вид битрейта : Переменный
Битрейт : 2880 Кбит/сек
Максимальный битрейт : 15,0 Мбит/сек
Ширина : 704 пикселя
Высота : 576 пикселей
Соотношение сторон : 4:3
Частота кадров : 25,000 кадров/сек
Стандарт вещания : PAL
Цветовое пространство : YUV
Субдискретизация насыщенности : 4:2:0
Битовая глубина : 8 бит
Метод сжатия : С потерями
Бит/(Пиксели*Кадры) : 0.284
Размер потока : 770 Мбайт (92%)
Библиотека кодирования : (c) 1998-2008 Womble Multimedia, Inc. / MPEG Video Wizard (12/2008) / Mar 31 2009
Аудио
Идентификатор : 192 (0xC0)
Формат : MPEG Audio
Версия формата : Version 1
Профиль формата : Layer 2
Продолжительность : 39 м.
Вид битрейта : Постоянный
Битрейт : 192 Кбит/сек
Каналы : 2 канала
Частота : 48,0 КГц
Метод сжатия : С потерями
Задержка видео : -80 мс.
Размер потока : 54,0 Мбайт (6%)

Список выпусков 2011 год:

2011-11-15. И.С. Тургенев - Отцы и дети
2011-11-22. Гёте - Фауст
2011-11-29. В.В. Маяковский - Облако в штанах
2011-12-06. Франсуа Рабле - Гаргантюа и Пантагрюэль
2011-12-13. И. Гончаров - Обломов
2011-12-20. Сергей Довлатов - Заповедник

Список выпусков 2012 год:

2012-01-11. А.П. Чехов - Чайка
2012-01-17. Оноре де Бальзак - Шагреневая кожа
2012-01-24. Лев Толстой - Крейцерова соната
2012-01-31. Уильям Шекспир - Гамлет
2012-02-07. Александр Пушкин - Евгений Онегин
2012-02-14. Николай Гоголь - Мертвые души
2012-02-21. Сервантес - Хитроумный идальго Дон Кихот Ламанчский
2012-02-28. Борис Пастернак - Доктор Живаго
2012-03-06. Михаил Булгаков - Мастер и Маргарита
2012-03-13. Ф.М. Достоевский - Бесы
2012-03-20. Джованни Боккаччо - Декамерон
2012-04-03. Михаил Лермонтов - Герой нашего времени
2012-04-10. Александр Блок - Двенадцать
2012-04-17. Гюстав Флобер - Госпожа Бовари
2012-04-24. Владимир Набоков - Машенька
2012-05-15. Александр Грибоедов - Горе от ума
2012-05-22. Эрих Мария Ремарк - Три товарища
2012-05-29. Иван Бунин - Темные аллеи
2012-06-05. Венедикт Ерофеев - Москва–Петушки
Доп. информация: Все раздачи программы Игра в бисер с Игорем Волгиным.
Качество файла на Народ Яндекс на мой взгляд лучше

Скриншоты

[teatrix.ru].t8991.torrent 
Торрент: Зарегистрирован [ 2015-10-18 18:10 ] · CB5AD63800039A610346E24E4ED3217E2304E61D

Скачать .torrent

Скачать

51 KB

Статус: проверено
Скачан: 0 раз
Размер: 19.37 GB
terms.php



Быстрый ответ

Имя:

      
Для отправки сообщений необходимо включить JavaScript
Показать сообщения:    

Текущее время: 04-Дек 19:20

Часовой пояс: UTC + 3


Вы можете начинать темы
Вы можете отвечать на сообщения
Вы не можете редактировать свои сообщения
Вы не можете удалять свои сообщения
Вы не можете голосовать в опросах
Вы не можете прикреплять файлы к сообщениям
Вы можете скачивать файлы