Глаз Божий / 2 серии из 2 (Леонид Парфенов, Сергей Нурмамед, Иван Скворцов) [2012, Документальный, DVB]


Статистика раздачи [Обновить пиров]
Размер:  4.71 GB   |    Зарегистрирован:  1 год 1 месяц   |    Скачан:  0 раз

Полного источника не было: Никогда

Личеров:  1  [  0 KB/s  ]   Подробная статистика пиров
 
   
 
 
 

[Цитировать]

Глаз Божий
Год выпуска: 2012
Страна: Россия
Жанр: Документальный
Продолжительность: 01:14:19
Режиссеры: Сергей Нурмамед, Иван Скворцов
Описание: Фильм Леонида Парфенова к 100-летию Государственного музея Изобразительных искусств им. А.С. Пушкина.
С Пушкинским музеем связаны многие исторические события в жизни российской культуры, вехи. Взять хотя бы «визит Джоконды» или приезд Марка Шагала (он проделал путь из Франции в Москву для того, чтобы посмотреть на лучшее собрание работ основоположника нового искусства... француза Анри Матисса), или музыкально-изобразительный фестиваль «Декабрьские вечера», организованный Святославом Рихтером, или вызвавшую гигантский ажиотаж выставку «Москва — Париж».
«От природы у русских на красоту взгляд европейский. Иван Цветаев, поповский сын из деревни во Владимировской губернии, основал нынешний Музей изобразительных искусств, сетуя: „Несчастная мы страна! У нас своей античности нет!“ Чтобы следующие „иваны“ из деревень знали, что мы тоже из европейского культурного корня, Цветаев собрал богатейшую коллекцию слепков от Древних Афин до флорентийского Возрождения. А купеческие сыновья Иван Морозов и Сергей Щукин оказались первыми ценителями авангарда — от них у нас роскошные собрания Гогена, Матисса, Сезанна, Пикассо. О них, об этой традиции и о том, как она выживала во времена гонений — наш фильм». (Л. Парфенов).
Памятные исторические сцены воссозданы на экране благодаря именитым актерам, а мировые шедевры в буквальном смысле слова оживают в попытке передать зрителю то впечатление, которое они производили на своих самых первых покупателей — русских меценатов, сумевших увидеть в них сто лет назад то, что мало кто видел.
Качество: DVB
Формат: MPG
Видео кодек: MPEG2
Аудио кодек: MP2
Видео: MPEG-2; 720x576 (16:9)@1024x576, 25.00fps, ~4100 Kbps
Аудио: 48 kHz, 2 ch, 192 kbps, mp2

Скриншоты

MI

Общее
Полное имя : E:\MPEG\Glaz.Bozhij.2012.DVB.Doc66\Glaz.Bozhij.s1.2012.DVB.Doc66.mpg
Формат : MPEG-PS
Размер файла : 2,30 Гбайт
Продолжительность : 1 ч. 14 м.
Режим общего битрейта : Переменный
Общий поток : 4440 Кбит/сек
Видео
Идентификатор : 224 (0xE0)
Формат : MPEG Video
Версия формата : Version 2
Профиль формата : Main@Main
Параметр BVOP формата : Да
Параметр матрицы формата : Выборочная
Продолжительность : 1 ч. 14 м.
Вид битрейта : Переменный
Битрейт : 4159 Кбит/сек
Максимальный битрейт : 15,0 Мбит/сек
Ширина : 720 пикселей
Высота : 576 пикселей
Соотношение сторон : 16:9
Частота кадров : 25,000 кадров/сек
Стандарт вещания : PAL
Цветовое пространство : YUV
Субдискретизация насыщенности : 4:2:0
Битовая глубина : 8 бит
Тип развёртки : Чересстрочная
Порядок развёртки : Верхнее поле первое
Метод сжатия : С потерями
Бит/(Пиксели*Кадры) : 0.401
Размер потока : 2,16 Гбайт (94%)
Аудио
Идентификатор : 192 (0xC0)
Формат : MPEG Audio
Версия формата : Version 1
Профиль формата : Layer 2
Продолжительность : 1 ч. 14 м.
Вид битрейта : Постоянный
Битрейт : 192 Кбит/сек
Каналы : 2 канала
Частота : 48,0 КГц
Метод сжатия : С потерями
Размер потока : 102 Мбайт (4%)
[teatrix.ru].t8995.torrent 
Торрент: Зарегистрирован [ 2015-10-18 18:10 ] · F7C75E391D0ECA5303F6C0AB67A7CE19A596DD7D

Скачать .torrent

Скачать

95 KB

Статус: проверено
Скачан: 0 раз
Размер: 4.71 GB
terms.php



Быстрый ответ

Имя:

      
Для отправки сообщений необходимо включить JavaScript
Показать сообщения:    

Текущее время: 08-Дек 21:08

Часовой пояс: UTC + 3


Вы можете начинать темы
Вы можете отвечать на сообщения
Вы не можете редактировать свои сообщения
Вы не можете удалять свои сообщения
Вы не можете голосовать в опросах
Вы не можете прикреплять файлы к сообщениям
Вы можете скачивать файлы