Арена - Грёзы Уильяма Голдинга / Arena - The Dreams of William Golding [2012, документальный, PDTVRip]


Статистика раздачи [Обновить пиров]
Размер:  732 MB   |    Зарегистрирован:  1 год 1 месяц   |    Скачан:  0 раз

Полного источника не было: Никогда

 
   
 
 
 

[Цитировать]

Арена - Грёзы Уильяма Голдинга / Arena - The Dreams of William Golding Год выпуска: 2012
Страна: Великобритания
Жанр: документальный
Продолжительность: 01:28:00
Перевод: Субтитры (Rus)
Русские субтитры: srt (внешним файлом)
Описание: Документальный фильм о Сэре Уильяме Джералде Голдинге — английском писателе, лауреате Нобелевской премии по литературе 1983 года.
За почти сорокалетнюю литературную карьеру Голдинг издал 12 романов; всемирную известность ему обеспечил первый из них, «Повелитель мух», считающийся одним из выдающихся произведений мировой литературы XX века.
Отрывки из произведений читает Benedict Cumberbatch
Качество: PDTVRip
Формат: AVI
Видео кодек: XviD
Аудио кодек: MP3
Видео: 624x352 (16:9), 25 fps, XviD, 1015 kbps, 0.185 bit/pixel
Аудио: [EN] 48 kHz, MPEG Layer 3, 2 ch, 128.00 kbps
Перевод: cherrychiara
Субтитры: LeonClive

Скриншоты




IM

Общее
Полное имя ...\Arena - The Dreams of William Golding\Arena - The Dreams of William Golding.avi
Формат : AVI
Формат/Информация : Audio Video Interleave
Размер файла : 732 Мбайт
Продолжительность : 1 ч. 28 м.
Общий поток : 1153 Кбит/сек
Библиотека кодирования : Boilsoft Joiner build 2411/release
Видео
Идентификатор : 0
Формат : MPEG-4 Visual
Профиль формата : Advanced Simple@L5
Параметр BVOP формата : 2
Параметр QPel формата : Нет
Параметр GMC формата : Без точки перехода
Параметр матрицы формата : Default (H.263)
Режим смешивания : Сжатый битовый поток
Идентификатор кодека : XVID
Идентификатор кодека/Подсказка : XviD
Продолжительность : 1 ч. 28 м.
Битрейт : 1015 Кбит/сек
Ширина : 624 пикселя
Высота : 352 пикселя
Соотношение сторон : 16:9
Частота кадров : 25,000 кадров/сек
Цветовое пространство : YUV
Субдискретизация насыщенности : 4:2:0
Битовая глубина : 8 бит
Тип развёртки : Прогрессивная
Метод сжатия : С потерями
Бит/(Пиксели*Кадры) : 0.185
Размер потока : 644 Мбайт (88%)
Библиотека кодирования : XviD 1.2.1 (UTC 2008-12-04)
Аудио
Идентификатор : 1
Формат : MPEG Audio
Версия формата : Version 1
Профиль формата : Layer 3
Режим : Joint stereo
Расширение режима : MS Stereo
Идентификатор кодека : 55
Идентификатор кодека/Подсказка : MP3
Продолжительность : 1 ч. 28 м.
Вид битрейта : Постоянный
Битрейт : 128 Кбит/сек
Каналы : 2 канала
Частота : 48,0 КГц
Метод сжатия : С потерями
Размер потока : 81,2 Мбайт (11%)
Выравнивание : Соединение по промежуткам
Продолжительность промежутка : 40 мс. (1,00 видеокадр)
Время предзагрузки промежутка : 480 мс.
Библиотека кодирования : LAME3.90.3ЄЄЄЄЄЄЄЄЄЄ
------------------------------------------------------------------------------
Format : SubRip
File size : 110 KiB
Text
Format : SubRip
Compression mode : Lossless
[teatrix.ru].t9012.torrent 
Торрент: Зарегистрирован [ 2015-10-18 18:10 ] · 031A695F386F7F612AB2D5D3C187CFFE776F109A

Скачать .torrent

Скачать

15 KB

Статус: проверено
Скачан: 0 раз
Размер: 732 MB
terms.php



Быстрый ответ

Имя:

      
Для отправки сообщений необходимо включить JavaScript
Показать сообщения:    

Текущее время: 04-Дек 13:16

Часовой пояс: UTC + 3


Вы можете начинать темы
Вы можете отвечать на сообщения
Вы не можете редактировать свои сообщения
Вы не можете удалять свои сообщения
Вы не можете голосовать в опросах
Вы не можете прикреплять файлы к сообщениям
Вы можете скачивать файлы