Лавкрафт: страх неизведанного / Lovecraft: fear of the unknown (Фрэнк Вудвард / Frank H. Woodward) [2008, США, документальный, HDRip] AVO (Алексей Полстовалов)


Статистика раздачи [Обновить пиров]
Размер:  761 MB   |    Зарегистрирован:  1 год 1 месяц   |    Скачан:  0 раз

Полного источника не было: Никогда

 
   
 
 
 

[Цитировать]

Лавкрафт: страх неизведанного / Lovecraft: fear of the unknown- Страна: США
Жанр: документальный
Год выпуска: 2008
Продолжительность: 01:29:20-Перевод: Авторский (одноголосый закадровый) Алексей Полстовалов (aka e-lex)
Cубтитры: нет
Режиссер: Фрэнк Вудвард / Frank H. Woodward-В ролях: Айзек Брэдли / Isaac Bradley, Рэмси Кэмпбелл / Ramsey Campbell, Гильермо Дель Торо / Guillermo del Toro, Джон Карпентер / John Carpenter и др.-Описание: Полнометражный документальный фильм "Lovecraft: fear of the unknown" представляет собой увлекательный рассказ о жизни Говарда Филлипса Лавкрафта. Своими мыслями о творчестве писателя делятся прославленные авторы, работающие в жанре литературы сверхъестественного ужаса, а также известные кинорежиссёры, чьё становление было бы невозможно без увлечения прозой Лавкрафта. В картине достаточно подробно освещается биография писателя, а также разбираются веховые произведения, ставшие основой Мифов Ктхулху. Авторы фильма с большим тщанием отнеслись к подбору материалов, что благотворно отразилось на художественных достоинствах ленты.
Фильм с успехом демонстрировался на множестве международных фестивалей, включая Comic-Con International Independent Film Festival (Лучший документальный фильм), The Fantasia Festival, Erie Horror Film Festival, The H.P. Lovecraft Film Festival и др.-Доп. информация: Kinopoisk.ru | IMDB |-Слова благодарности: спасибо Тарантинычу за исходник и оформление, Алексею Полстовалову (aka e-lex) - за авторский перевод.-Сэмпл: http://multi-up.com/675025-Качество видео: HDRip
Формат видео: AVI
Видео: 656x368 (16:9), 23.976 fps, XviD build 64 ~1053 kbps avg, 0.182 bit/pixel
Аудио: 48 kHz, MPEG Layer 3, 2 ch, ~128.00 kbps avg
-

MediaInfo


Video
ID : 0
Format : MPEG-4 Visual
Format profile : Advanced Simple@L5
Format settings, BVOP : 1
Format settings, QPel : No
Format settings, GMC : No warppoints
Format settings, Matrix : Custom
Codec ID : XVID
Codec ID/Hint : XviD
Duration : 1h 29mn
Bit rate : 1 053 Kbps
Width : 656 pixels
Height : 368 pixels
Display aspect ratio : 16:9
Frame rate : 23.976 fps
Color space : YUV
Chroma subsampling : 4:2:0
Bit depth : 8 bits
Scan type : Progressive
Compression mode : Lossy
Bits/(Pixel*Frame) : 0.182
Stream size : 673 MiB (88%)
Writing library : XviD 64
Audio
ID : 1
Format : MPEG Audio
Format version : Version 1
Format profile : Layer 3
Mode : Joint stereo
Mode extension : MS Stereo
Codec ID : 55
Codec ID/Hint : MP3
Duration : 1h 29mn
Bit rate mode : Constant
Bit rate : 128 Kbps
Channel(s) : 2 channels
Sampling rate : 48.0 KHz
Compression mode : Lossy
Stream size : 81.8 MiB (11%)
Alignment : Aligned on interleaves
Interleave, duration : 42 ms (1.00 video frame)
Interleave, preload duration : 504 ms
Writing library : LAME3.98r
Encoding settings : -m j -V 4 -q 0 -lowpass 17 -b 128
-
[teatrix.ru].t9016.torrent 
Торрент: Зарегистрирован [ 2015-10-18 18:10 ] · AAEF6A515CCED9D67FB86D080882F2BB479E05EB

Скачать .torrent

Скачать

15 KB

Статус: проверено
Скачан: 0 раз
Размер: 761 MB
terms.php



Быстрый ответ

Имя:

      
Для отправки сообщений необходимо включить JavaScript
Показать сообщения:    

Текущее время: 07-Дек 00:55

Часовой пояс: UTC + 3


Вы можете начинать темы
Вы можете отвечать на сообщения
Вы не можете редактировать свои сообщения
Вы не можете удалять свои сообщения
Вы не можете голосовать в опросах
Вы не можете прикреплять файлы к сообщениям
Вы можете скачивать файлы