Третьяковка дар бесценный! Ее ничто не согнет << Анна Голубкина >> (эфир от 22.03.2012) [2004, Документальный цикл, познавательный, DVB]


Статистика раздачи [Обновить пиров]
Размер:  357 MB   |    Зарегистрирован:  1 год 1 месяц   |    Скачан:  0 раз

Полного источника не было: Никогда

 
   
 
 
 

[Цитировать]

Третьяковка дар бесценный! Ее ничто не согнет > (эфир от 22.03.2012)
Год выпуска: 2004
Страна: Россия, ООО "Наш взгляд"
Жанр: Документальный цикл, познавательный
Продолжительность: 00:25:31
Перевод: Не требуется
Русские субтитры: нет
Описание: Фильм посвящен творчеству великого скульптора - Анны Семеновны Голубкиной - ее уникальной личности и ее подвижнической деятельности.
Доп. информация:
Автор сценария: Анна Аносова
Релиз: dean10

википедия

Голубкина Анна Семёновна
Дата рождения: 16 (28) января 1864
Место рождения: Зарайск Московская область
Дата смерти: 7 сентября 1927 (63 года)
Место смерти: Зарайск Московская область
Гражданство: Российская империя
РСФСР
СССР
Учёба: Московское училище живописи, ваяния и зодчества
Академия художеств
Стиль: импрессионизм
символизм
Влияние: Огюст Роден
Биография
Анна Семёновна родилась в городе Зарайске Рязанской губернии (ныне Московская область) в мещанской семье. В двадцать пять лет уехала в Москву, попала в художественную школу А. О. Гунста (1889—1890 гг.), где её способности заметил известный скульптор и педагог С. М. Волнухин. Затем, в 1891 году поступила в Московское училище живописи, ваяния и зодчества, проучилась там до 1894 года под руководством С. И. Иванова. В том же году несколько месяцев училась в Санкт-Петербургской Академии художеств у В. А. Беклемишева. Три раза ездила в Париж, где плодотворно работала и обучалась у О. Родена. Преподавала в Московском коммерческом училище (1904—1906 гг.), на Пречистенских рабочих курсах (1913—1916 гг.) и во ВХУТЕМАСе (1918—1922 гг.). Автор книги «Несколько слов о ремесле скульптора».
Руками одной из самых известных русских женщин-скульпторов сделано немало произведений, ставших классикой станковой скульптуры. Работы находятся в крупнейших музеях и собраниях (Третьяковская Галерея, Русский Музей и других). Голубкина стала одним из первых скульпторов, создавших в своих произведениях образ людей труда. Ей также принадлежит первый в России скульптурный портрет Карла Маркса.
В последние годы часто возвращалась на родину. Почувствовав приближение смерти уехала в Зарайск, где и была похоронена на городском кладбище. Сейчас в Зарайске находится музей Голубкиной, открытый в её доме. В 1999 году в музее установлен памятник Голубкиной работы Ю. Ф. Иванова
Наиболее известные произведения
• «Пловец» (1886)
• Ваза «Туман» (1899)
• «Березка» (1927)
• «Портрет Л. Н. Толстого» (1927)
• «Раб» (1909)
• «Идущий человек» (1903)
• «Портрет М. Ю. Лермонтова» (1900—1901)
• «Рабочий» (1900)
• «Огонь» (1900)
• «Портрет К. Маркса» (1905)
• «Железный» (1897)
• «Старость» (1897)

MI

General
ID : 1 (0x1)
Complete name : C:Третьяковка дар бесценный. Ее ничто не согнет. Анна Голубкина_2004_DVB_dean10.ts
Format : MPEG-TS
File size : 357 MiB
Duration : 25mn 31s
Overall bit rate : 1 955 Kbps
Video
ID : 251 (0xFB)
Menu ID : 1 (0x1)
Format : AVC
Format/Info : Advanced Video Codec
Format profile : Main@L3.0
Format settings, CABAC : Yes
Format settings, ReFrames : 4 frames
Codec ID : 27
Duration : 25mn 31s
Bit rate : 1 664 Kbps
Width : 720 pixels
Height : 576 pixels
Display aspect ratio : 4:3
Frame rate : 25.000 fps
Standard : Component
Color space : YUV
Chroma subsampling : 4:2:0
Bit depth : 8 bits
Scan type : Interlaced
Scan order : Top Field First
Bits/(Pixel*Frame) : 0.160
Stream size : 304 MiB (85%)
Color primaries : BT.470-6 System B, BT.470-6 System G, BT.601-6 625, BT.1358 625, BT.1700 625 PAL, BT.1700 625 SECAM
Transfer characteristics : BT.470-6 System B, BT.470-6 System G
Matrix coefficients : BT.470-6 System B, BT.470-6 System G, BT.601-6 625, BT.1358 625, BT.1700 625 PAL, BT.1700 625 SECAM, IEC 61966-2-4 601
Audio
ID : 252 (0xFC)
Menu ID : 1 (0x1)
Format : MPEG Audio
Format version : Version 1
Format profile : Layer 2
Codec ID : 3
Duration : 25mn 31s
Bit rate mode : Constant
Bit rate : 192 Kbps
Channel(s) : 2 channels
Sampling rate : 48.0 KHz
Compression mode : Lossy
Stream size : 35.1 MiB (10%)
Language : Russian
Качество: DVB
Формат: TS
Видео кодек: H.264
Аудио кодек: MP2
Видео: MPEG-4 AVC, 720x576, (4:3), 25 fps, 1 664 kbps
Аудио: Russian: 48 kHz, MPEG Audio, 2 ch, 192 kbps

Скриншоты

[teatrix.ru].t9017.torrent 
Торрент: Зарегистрирован [ 2015-10-18 18:10 ] · 19D2C00F62A9E83FAC11AD0FA2E7B13E04FCB791

Скачать .torrent

Скачать

15 KB

Статус: проверено
Скачан: 0 раз
Размер: 357 MB
terms.php



Быстрый ответ

Имя:

      
Для отправки сообщений необходимо включить JavaScript
Показать сообщения:    

Текущее время: 10-Дек 08:05

Часовой пояс: UTC + 3


Вы можете начинать темы
Вы можете отвечать на сообщения
Вы не можете редактировать свои сообщения
Вы не можете удалять свои сообщения
Вы не можете голосовать в опросах
Вы не можете прикреплять файлы к сообщениям
Вы можете скачивать файлы