Голландские мастера. Рембрандт / Dutch Masters (Ton van der Horst) [2009, Документальный, познавательный, DVB]


Статистика раздачи [Обновить пиров]
Размер:  639 MB   |    Зарегистрирован:  1 год 1 месяц   |    Скачан:  1 раз

Полного источника не было: 6 месяцев 13 дней

 
   
 
 
 

[Цитировать]

Голландские мастера. Рембрандт / Dutch Masters
Год выпуска: 2009
Страна: Нидерланды, PM Screenservices
Жанр: Документальный, познавательный
Продолжительность: 00:52:27
Перевод: Профессиональный (одноголосый)
Русские субтитры: нет
Режиссер: Ton van der Horst
Описание: Рембрандт Харменс ван Рейн (1606-69) многими признан как величайший европейский художник всех времен, но профессиональная жизнь его, как и у Хальса, была цепью взлетов и падений.
Доп. информация:

MI

General
ID : 1 (0x1)
Complete name : C:Голландские мастера. Рембрандт_2009_DVB_by_dean10.ts
Format : MPEG-TS
File size : 639 MiB
Duration : 52mn 27s
Overall bit rate : 1 703 Kbps
Video
ID : 751 (0x2EF)
Menu ID : 1 (0x1)
Format : AVC
Format/Info : Advanced Video Codec
Format profile : Main@L3.0
Format settings, CABAC : Yes
Format settings, ReFrames : 4 frames
Codec ID : 27
Duration : 52mn 27s
Bit rate : 1 425 Kbps
Width : 720 pixels
Height : 576 pixels
Display aspect ratio : 4:3
Frame rate : 25.000 fps
Standard : Component
Color space : YUV
Chroma subsampling : 4:2:0
Bit depth : 8 bits
Scan type : Interlaced
Scan order : Top Field First
Bits/(Pixel*Frame) : 0.137
Stream size : 535 MiB (84%)
Color primaries : BT.470-6 System B, BT.470-6 System G, BT.601-6 625, BT.1358 625, BT.1700 625 PAL, BT.1700 625 SECAM
Transfer characteristics : BT.470-6 System B, BT.470-6 System G
Matrix coefficients : BT.470-6 System B, BT.470-6 System G, BT.601-6 625, BT.1358 625, BT.1700 625 PAL, BT.1700 625 SECAM, IEC 61966-2-4 601
Audio
ID : 752 (0x2F0)
Menu ID : 1 (0x1)
Format : MPEG Audio
Format version : Version 1
Format profile : Layer 2
Codec ID : 3
Duration : 52mn 27s
Bit rate mode : Constant
Bit rate : 192 Kbps
Channel(s) : 2 channels
Sampling rate : 48.0 KHz
Compression mode : Lossy
Stream size : 72.0 MiB (11%)
Language : Russian
Качество: DVB
Формат: TS
Видео кодек: H.264
Аудио кодек: MP2
Видео: MPEG-4 AVC, 720x576, (4:3), 25 fps, 1 425 kbps
Аудио: Russian: 48 kHz, MPEG Audio, 2 ch, 192 kbps

Скриншоты

[teatrix.ru].t9022.torrent 
Торрент: Зарегистрирован [ 2015-10-18 18:10 ] · 8C937691E0544A482C3246568A2F4C4A2915383B

Скачать .torrent

Скачать

13 KB

Статус: проверено
Скачан: 1 раз
Размер: 639 MB
terms.php



Быстрый ответ

Имя:

      
Для отправки сообщений необходимо включить JavaScript
Показать сообщения:    

Текущее время: 03-Дек 22:46

Часовой пояс: UTC + 3


Вы можете начинать темы
Вы можете отвечать на сообщения
Вы не можете редактировать свои сообщения
Вы не можете удалять свои сообщения
Вы не можете голосовать в опросах
Вы не можете прикреплять файлы к сообщениям
Вы можете скачивать файлы