Красота книг (2 серии из 4) << Средневековые шедевры >> / The Beauty of Books (Mike Robinson) [2011, Документальный цикл, познавательный, DVB]


Статистика раздачи [Обновить пиров]
Размер:  654 MB   |    Зарегистрирован:  1 год 1 месяц   |    Скачан:  0 раз

Полного источника не было: Никогда

 
   
 
 
 

[Цитировать]

Красота книг (2 серии из 4) > / The Beauty of Books
Год выпуска: 2011
Страна: Великобритания, Tern Television Productions
Жанр: Документальный цикл, познавательный
Продолжительность: 00:29:02
Перевод: Профессиональный (двухголосый)
Русские субтитры: нет
Режиссер: Mike Robinson
Описание:

1-я серия. «Древние Библии»

В собрании Британской библиотеки хранится одна из величайших книг мира. несравненное произведение искусства, шедевр книжного ремесла, священный текст - Синайский кодекс - удивительное свидетельство ранней истории христианства.

2-я серия. «Средневековые шедевры»

В Британской библиотеке хранятся знаменитые иллюминированные манускрипты. Одна из этих книг не просто очень красивая, а завораживающая. Великолепная псалтырь Латтрелла знаменита забавными, яркими изображениями сельской Англии и ужасными, гротескными иллюстрациями мира демонов. Другая книга - "Кентерберийские рассказы" Джеффри Чосера, первая книга, написанная на английском языке, ставшая одной из самых популярных книг позднего Средневековья.
Доп. информация:

MI

General
ID : 1 (0x1)
Complete name : C:01. Красота книг. Древние Библии_2011_DVB_by_dean10.ts
Format : MPEG-TS
File size : 295 MiB
Duration : 29mn 2s
Overall bit rate : 1 418 Kbps
Video
ID : 251 (0xFB)
Menu ID : 1 (0x1)
Format : AVC
Format/Info : Advanced Video Codec
Format profile : Main@L3.0
Format settings, CABAC : Yes
Format settings, ReFrames : 4 frames
Codec ID : 27
Duration : 29mn 2s
Bit rate : 1 154 Kbps
Width : 720 pixels
Height : 576 pixels
Display aspect ratio : 4:3
Frame rate : 25.000 fps
Standard : Component
Color space : YUV
Chroma subsampling : 4:2:0
Bit depth : 8 bits
Scan type : Interlaced
Scan order : Top Field First
Bits/(Pixel*Frame) : 0.111
Stream size : 240 MiB (81%)
Color primaries : BT.470-6 System B, BT.470-6 System G, BT.601-6 625, BT.1358 625, BT.1700 625 PAL, BT.1700 625 SECAM
Transfer characteristics : BT.470-6 System B, BT.470-6 System G
Matrix coefficients : BT.470-6 System B, BT.470-6 System G, BT.601-6 625, BT.1358 625, BT.1700 625 PAL, BT.1700 625 SECAM, IEC 61966-2-4 601
Audio
ID : 252 (0xFC)
Menu ID : 1 (0x1)
Format : MPEG Audio
Format version : Version 1
Format profile : Layer 2
Codec ID : 3
Duration : 29mn 2s
Bit rate mode : Constant
Bit rate : 192 Kbps
Channel(s) : 2 channels
Sampling rate : 48.0 KHz
Compression mode : Lossy
Stream size : 39.9 MiB (14%)
Language : Russian
Добавил: 02. Средневековые шедевры, перезалейте торрент-файл

Как правильно подключиться к раздаче ПОСЛЕ ОБНОВЛЕНИЯ торрента!

Внимание! Раздача ведётся путём добавления новых серий; при каждом добавлении создётся новый торрент. Чтобы начать докачку новой серии, пользователям необходимо сделать следующее:
(1) остановить скачивание,
(2) удалить старый торрент у себя из клиента (старые серии удалять не надо),
(3) скачать новый торрент и запустить его у себя в клиенте вместо старого, при этом указать клиенту путь в старую папку куда и должно происходить скачивание новых серий.
Ваш клиент при этом должен произвести хеширование (проверку) старой папки (если не производит сам - помогите ему сделать это), и будет докачивать только те серии которых у вас
ещё нет. Старые серии при этом не удаляются, а продолжают раздаваться!
Качество: DVB
Формат: TS
Видео кодек: H.264
Аудио кодек: MP2
Видео: MPEG-4 AVC, 720x576, (4:3), 25 fps, 1 154 kbps
Аудио: Russian: 48 kHz, MPEG Layer 2, 2 ch, 192 kbps

Скриншоты

[teatrix.ru].t9023.torrent 
Торрент: Зарегистрирован [ 2015-10-18 18:10 ] · CBC58E42E32B1A17D4C915001B58A6685ACE27CC

Скачать .torrent

Скачать

13 KB

Статус: проверено
Скачан: 0 раз
Размер: 654 MB
terms.php



Быстрый ответ

Имя:

      
Для отправки сообщений необходимо включить JavaScript
Показать сообщения:    

Текущее время: 05-Дек 19:39

Часовой пояс: UTC + 3


Вы можете начинать темы
Вы можете отвечать на сообщения
Вы не можете редактировать свои сообщения
Вы не можете удалять свои сообщения
Вы не можете голосовать в опросах
Вы не можете прикреплять файлы к сообщениям
Вы можете скачивать файлы