Семь тайн Третьяковской галереи (Михаил Роговой) [2012, Документальный, DVB]


Статистика раздачи [Обновить пиров]
Размер:  1.2 GB   |    Зарегистрирован:  1 год 1 месяц   |    Скачан:  0 раз

Полного источника не было: Никогда

 
   
 
 
 

[Цитировать]

Семь тайн Третьяковской галереи
Год выпуска: 2012
Страна: Россия
Жанр: Документальный
Продолжительность: 00:44:22
Перевод: Не требуется
Режиссер: Михаил Роговой
Описание: Если пройти по залам Третьяковской галереи ночью - становится не по себе. Кажется, что знакомые персонажи сходят с полотен и начинают говорить... Документальный фильм Михаила Рогового "Семь тайн Третьяковской галереи".
Вам известно, что у картины "Утро в сосновом лесу" два автора? Оказывается, художник Иван Шишкин нарисовал только пейзаж - просыпающийся лес, а медведей написал второй художник - Савицкий?
Вы знаете, что более века в "Портрете неизвестного в треуголке" под маской мужчины скрывается женщина? Вы могли когда-либо предположить, что два лика чудотворной иконы Владимирской Божьей Матери (ей около 900 лет) ни разу не поновлялись, хотя сама икона реставрировалась неоднократно?
Сегодня в Третьяковской галерее хранится почти 150 тысяч экспонатов. У каждого из них есть своя судьба и своя тайна. Этот фильм раскроет семь самых удивительных загадок знаменитого музея.
Качество: DVB
Формат: MPEG
Видео кодек: MPEG2
Аудио кодек: MPEG1 Layer 2
Видео: MPEG2 Video 720x576 (4:3) 25.00fps ~3 606 Kbps
Аудио: MPEG Audio 48000Hz 2 channels 192 Кбит/сек

MediaInfo

H:\03__Моя планета\111__МПЕГ\Семь тайн Третьяковской галереи_DVB by kuzmichm2196 .mpg
General
Complete name : H:\03__Моя планета\111__МПЕГ\Семь тайн Третьяковской галереи_DVB by kuzmichm2196 .mpg
Format : MPEG-PS
File size : 1.20 GiB
Duration : 44mn 22s
Overall bit rate : 3 875 Kbps
Writing library : (c) 1998-2008 Womble Multimedia, Inc. / MPEG Video Wizard (08/2008) / Aug 25 2008
Video #224
ID : 224 (0xE0)
Format : MPEG Video
Format version : Version 2
Format profile : Main@Main
Format settings, BVOP : Yes
Format settings, Matrix : Custom
Format settings, GOP : M=3, N=21
Duration : 44mn 22s
Bit rate mode : Variable
Bit rate : 3 606 Kbps
Nominal bit rate : 15.0 Mbps
Width : 720 pixels
Height : 576 pixels
Display aspect ratio : 4:3
Frame rate : 25.000 fps
Standard : PAL
Color space : YUV
Chroma subsampling : 4:2:0
Bit depth : 8 bits
Scan type : Interlaced
Scan order : Top Field First
Compression mode : Lossy
Bits/(Pixel*Frame) : 0.348
Stream size : 1.12 GiB (93%)
Writing library : (c) 1998-2008 Womble Multimedia, Inc. / MPEG Video Wizard (08/2008) / Aug 25 2008
Audio #192
ID : 192 (0xC0)
Format : MPEG Audio
Format version : Version 1
Format profile : Layer 2
Duration : 44mn 22s
Bit rate mode : Constant
Bit rate : 192 Kbps
Channel(s) : 2 channels
Sampling rate : 48.0 KHz
Compression mode : Lossy
Stream size : 60.9 MiB (5%)

Скриншоты

[teatrix.ru].t9029.torrent 
Торрент: Зарегистрирован [ 2015-10-18 18:10 ] · F1D9AD4F889B9CFC5234C9A5B06F4E3E29F08FB6

Скачать .torrent

Скачать

13 KB

Статус: проверено
Скачан: 0 раз
Размер: 1.2 GB
terms.php



Быстрый ответ

Имя:

      
Для отправки сообщений необходимо включить JavaScript
Показать сообщения:    

Текущее время: 10-Дек 23:28

Часовой пояс: UTC + 3


Вы можете начинать темы
Вы можете отвечать на сообщения
Вы не можете редактировать свои сообщения
Вы не можете удалять свои сообщения
Вы не можете голосовать в опросах
Вы не можете прикреплять файлы к сообщениям
Вы можете скачивать файлы