Третьяковка - дар бесценный. Алексей Венецианов и его школа (Григорий Чакрян) [2004, Документальный цикл, познавательный, DVB]


Статистика раздачи [Обновить пиров]
Размер:  389 MB   |    Зарегистрирован:  1 год 1 месяц   |    Скачан:  0 раз

Полного источника не было: Никогда

 
   
 
 
 

[Цитировать]

Третьяковка - дар бесценный. Алексей Венецианов и его школа
Год выпуска: 2004
Страна: Россия, ООО "Наш взгляд"
Жанр: Документальный цикл, познавательный
Продолжительность: 00:25:31
Перевод: Не требуется
Русские субтитры: нет
Режиссер: Григорий Чакрян
Описание: Оставив службу в Петербурге и поселившись в своем имении в Тверской губернии Алексей Венецианов посвятил себя всецело не только живописи, но и воспитанию целой плеяды молодых художников - юношей из городских низов и крепостных крестьян. Школа Венецианова - яркая неповторимая страница в русском искусстве, подарившая России многих талантливых художников. Подвижничество Венецианова послужило достойным примером, и в конце ХIХ века было подхвачено многими русскими художниками.
Доп. информация: Текст читал: Виктор Татарский

MI

General
ID : 1 (0x1)
Complete name : C:Третьяковка - дар бесценный. Алексей Венецианов и его школа_2004_DVB_by_dean10.ts
Format : MPEG-TS
File size : 389 MiB
Duration : 25mn 31s
Overall bit rate : 2 133 Kbps
Video
ID : 251 (0xFB)
Menu ID : 1 (0x1)
Format : AVC
Format/Info : Advanced Video Codec
Format profile : Main@L3.0
Format settings, CABAC : Yes
Format settings, ReFrames : 4 frames
Codec ID : 27
Duration : 25mn 31s
Bit rate : 1 833 Kbps
Width : 720 pixels
Height : 576 pixels
Display aspect ratio : 4:3
Frame rate : 25.000 fps
Standard : Component
Color space : YUV
Chroma subsampling : 4:2:0
Bit depth : 8 bits
Scan type : Interlaced
Scan order : Top Field First
Bits/(Pixel*Frame) : 0.177
Stream size : 335 MiB (86%)
Color primaries : BT.470-6 System B, BT.470-6 System G, BT.601-6 625, BT.1358 625, BT.1700 625 PAL, BT.1700 625 SECAM
Transfer characteristics : BT.470-6 System B, BT.470-6 System G
Matrix coefficients : BT.470-6 System B, BT.470-6 System G, BT.601-6 625, BT.1358 625, BT.1700 625 PAL, BT.1700 625 SECAM, IEC 61966-2-4 601
Audio
ID : 252 (0xFC)
Menu ID : 1 (0x1)
Format : MPEG Audio
Format version : Version 1
Format profile : Layer 2
Codec ID : 3
Duration : 25mn 31s
Bit rate mode : Constant
Bit rate : 192 Kbps
Channel(s) : 2 channels
Sampling rate : 48.0 KHz
Compression mode : Lossy
Stream size : 35.1 MiB (9%)
Language : Russian
Качество: DVB
Формат: TS
Видео кодек: H.264
Аудио кодек: MP2
Видео: MPEG-4 AVC, 720x576, (4:3), 25 fps, 1 833 kbps
Аудио: Russian: 48 kHz, MPEG Layer 2, 2 ch, 192 kbps

Скриншоты

[teatrix.ru].t9031.torrent 
Торрент: Зарегистрирован [ 2015-10-18 18:10 ] · DFD14BACE57296A23F864BC8E16DBFDEB0B929A5

Скачать .torrent

Скачать

16 KB

Статус: проверено
Скачан: 0 раз
Размер: 389 MB
terms.php



Быстрый ответ

Имя:

      
Для отправки сообщений необходимо включить JavaScript
Показать сообщения:    

Текущее время: 11-Дек 10:58

Часовой пояс: UTC + 3


Вы можете начинать темы
Вы можете отвечать на сообщения
Вы не можете редактировать свои сообщения
Вы не можете удалять свои сообщения
Вы не можете голосовать в опросах
Вы не можете прикреплять файлы к сообщениям
Вы можете скачивать файлы