Милош Форман / Milos Forman (Luc Lagier) [2010, Документальный фильм, DVB]


Статистика раздачи [Обновить пиров]
Размер:  899 MB   |    Зарегистрирован:  1 год 1 месяц   |    Скачан:  0 раз

Полного источника не было: Никогда

 
   
 
 
 

[Цитировать]

Милош Форман / Milos Forman- Год выпуска: 2010
Страна: Франция
Жанр: Документальный фильм
Продолжительность: 00:40:05
Перевод: профессиональный (одноголосый)
Русские субтитры: нет-Режиссер: Luc Lagier-Описание: До переезда в Голливуд в 1968 году, Милош Форман жил в Чехословакии, находившейся под тоталитарным режимом, и снимал независимое кино. Форман открывает для нас свои архивы и рассказывает о начале своего творческого пути в 60-ых. В фильме принимали участие его близкие коллеги и соратники - сценарист Жан-Клод Карьер и режиссер Иван Пассер.
Качество: DVB
Формат: mpg
Видео кодек: MPEG
Аудио кодек: mp2
Видео: MPEG Video at 2 218 Kbps 720x576@768x576 (1.333) at 25.000 fps
Аудио: MPEG Audio at 192 Kbps 2 channels, 48.0 KHz

MI

Format : MPEG-PS
File size : 899 MiB
Duration : 50mn 5s
Overall bit rate : 2 510 Kbps
Video
ID : 224 (0xE0)
Format : MPEG Video
Format version : Version 2
Format profile : Main@Main
Format settings, Matrix : Default
Duration : 50mn 5s
Bit rate mode : Variable
Bit rate : 2 218 Kbps
Nominal bit rate : 15.0 Mbps
Width : 720 pixels
Height : 576 pixels
Display aspect ratio : 4:3
Frame rate : 25.000 fps
Standard : PAL
Colorimetry : 4:2:0
Scan type : Interlaced
Scan order : Top Field First
Bits/(Pixel*Frame) : 0.214
Stream size : 795 MiB (88%)
Audio
ID : 192 (0xC0)
Format : MPEG Audio
Format version : Version 1
Format profile : Layer 2
Duration : 50mn 5s
Bit rate mode : Constant
Bit rate : 192 Kbps
Channel(s) : 2 channels
Sampling rate : 48.0 KHz
Resolution : 16 bits
Stream size : 68.8 MiB (8%)

Скриншоты

[teatrix.ru].t9036.torrent 
Торрент: Зарегистрирован [ 2015-10-18 18:53 ] · 40C28839EAFC28B666934080289B0B5F546FF471

Скачать .torrent

Скачать

18 KB

Статус: проверено
Скачан: 0 раз
Размер: 899 MB
terms.php



Показать сообщения:    

Текущее время: 03-Дек 20:42

Часовой пояс: UTC + 3


Вы не можете начинать темы
Вы не можете отвечать на сообщения
Вы не можете редактировать свои сообщения
Вы не можете удалять свои сообщения
Вы не можете голосовать в опросах
Вы не можете прикреплять файлы к сообщениям
Вы можете скачивать файлы