"Ирония судьбы". Рождение легенды [2011, Документальный, DVB]


Статистика раздачи [Обновить пиров]
Размер:  1.37 GB   |    Зарегистрирован:  1 год 1 месяц   |    Скачан:  0 раз

Полного источника не было: Никогда

 
   
 
 
 

[Цитировать]

"Ирония судьбы". Рождение легенды
Год выпуска: 2011
Страна: Россия
Жанр: Документальный
Продолжительность: 00:44:14
Перевод: Не требуется
Русские субтитры: нет
Описание: Она стала знаменитой в России более 30 лет назад, за одну новогоднюю ночь 1976 года, когда на экраны вышел фильм режиссера Эльдара Рязанова «Ирония судьбы, или С легким паром…». С этого момента наша страна встречает Новый год вместе с Надей.
Вот уже 35 лет подряд все верят в чудо, благодаря «Иронии...».
Но, по иронии судьбы, в жизни польской актрисы Барбары Брыльской все складывалось не так чудесно, как у ее героини. Мало кто знает, что за очаровательной внешностью Барбары стоит страшная и трагическая судьба.
После фильма Эльдара Рязанова она стала самой любимой актрисой в СССР, но на своей родине, в Польше, Барбара Брыльска так и не добилась признания. «Иронию судьбы» там встретили холодно. Отношения России с Польшей были напряженными. Госпремия СССР за роль Нади Шевелевой и вовсе положила конец работе на родине.
Личная жизнь Барбары тоже не складывалась. Два брака распались. С первым мужем она познакомилась 17-летней девочкой. Они прожили восемь лет душа в душу, но огорчало одно: не было детей. К тому же Ян настаивал на том, чтобы юная супруга бросила театральный институт и посвятила себя «карьере» домохозяйки. Их брак распался, когда на съемках фильма «Белые волки» Барбара закрутила любовь со Слободаном Дмитриевичем, горячим югославским актером. Увы, на пути Брыльской к новому семейному счастью возникла серьезная преграда — богатое патриархальное семейство Дмитриевича отказалось принять разведенную актрису.
В 1970 году Барбара Брыльска вышла замуж во второй раз. На этот раз ее избранник не имел никакого отношения к искусству — Людвиг Космаль был врачом. Но счастливой семейной жизни не получилось: Людвиг любил выпить, изменял красавице-жене и изводил ее своим тяжелым характером. В этом браке у нее родилось двое детей: дочка тоже Барбара (Бася) и Людвиг, названный в честь отца. Однако, прожив с мужем 18 лет, Брыльска все же решила с ним разойтись. Развод был крайне тяжелым, но он оказался мелочью по сравнению с другим постигшим ее несчастьем. 20-летняя дочка актрисы — красавица Бася — разбилась в автокатастрофе.
Сегодня Барбара Брыльска живет с сыном Людвигом. «Мне не нужны мужчины, я много страдала из-за них. Но в душе я по-прежнему молода», — признается актриса.
Качество: DVB
Формат: MPG
Видео кодек: MPEG2
Аудио кодек: MP2
Видео: MPEG2 Video 704x576 (16:9) 25.00fps 4159 Kbps 0.401
Аудио: MPEG Audio 48000Hz stereo 192kbps

Скриншоты

MI

Общее
Полное имя : E:\MPEG\Ironija.sudjby.Rozhdenie.legendy.2011.DVB.Doc66.mpg
Формат : MPEG-PS
Размер файла : 1,37 Гбайт
Продолжительность : 44 м.
Режим общего битрейта : Переменный
Общий поток : 4439 Кбит/сек
Видео
Идентификатор : 224 (0xE0)
Формат : MPEG Video
Версия формата : Version 2
Профиль формата : Main@Main
Параметр BVOP формата : Да
Параметр матрицы формата : Выборочная
Продолжительность : 44 м.
Вид битрейта : Переменный
Битрейт : 4159 Кбит/сек
Максимальный битрейт : 15,0 Мбит/сек
Ширина : 720 пикселей
Высота : 576 пикселей
Соотношение сторон : 16:9
Частота кадров : 25,000 кадров/сек
Стандарт вещания : PAL
Цветовое пространство : YUV
Субдискретизация насыщенности : 4:2:0
Битовая глубина : 8 бит
Тип развёртки : Чересстрочная
Порядок развёртки : Верхнее поле первое
Метод сжатия : С потерями
Бит/(Пиксели*Кадры) : 0.401
Размер потока : 1,29 Гбайт (94%)
Аудио
Идентификатор : 192 (0xC0)
Формат : MPEG Audio
Версия формата : Version 1
Профиль формата : Layer 2
Продолжительность : 44 м.
Вид битрейта : Постоянный
Битрейт : 192 Кбит/сек
Каналы : 2 канала
Частота : 48,0 КГц
Метод сжатия : С потерями
Размер потока : 60,8 Мбайт (4%)
[teatrix.ru].t9049.torrent 
Торрент: Зарегистрирован [ 2015-10-18 18:53 ] · 157D77C088221AE6A963F7450AB5516149FAE2E8

Скачать .torrent

Скачать

28 KB

Статус: проверено
Скачан: 0 раз
Размер: 1.37 GB
terms.php



Показать сообщения:    

Текущее время: 06-Дек 20:59

Часовой пояс: UTC + 3


Вы не можете начинать темы
Вы не можете отвечать на сообщения
Вы не можете редактировать свои сообщения
Вы не можете удалять свои сообщения
Вы не можете голосовать в опросах
Вы не можете прикреплять файлы к сообщениям
Вы можете скачивать файлы