Стоп-кадр. Груз 200 [2009, Документальный цикл, DVB]


Статистика раздачи [Обновить пиров]
Размер:  811 MB   |    Зарегистрирован:  1 год 3 месяца   |    Скачан:  0 раз

Полного источника не было: Никогда

 
   
 
 
 

[Цитировать]

Стоп-кадр. Груз 200
Год выпуска: 2009
Страна: Украина. ATB
Жанр: Документальный цикл
Продолжительность: 00:28:27
Перевод: Не требуется
Русские субтитры: нет
Описание: Кино не только отражает жизнь, оно её создаёт. Оно имеет особую магнетическую власть над нами. Кино само подобно жизни. Жизнь состоит из мгновений, а кино из кадров. Детальное исследование киноискусства в передаче «Стоп-кадр».
За последние 2—3 года в российским кинематографе было несколько фильмов, вызвавших широкий общественный интерес, выходящий за пределы отдельно взятого произведения художественного искусства. Так случилось с фильмом Никиты Михалкова «12», Павла Лунгина «Остров» и фильмом-шоком Балабанова «Груз 200».
Доп. информация: Автор и ведущий: Роман Оленев

MI

General
ID : 19 (0x13)
Complete name : C:Стоп-кадр. Груз 200_2009_DVB_by_ItarTass.TS
Format : MPEG-TS
File size : 811 MiB
Duration : 28mn 27s
Overall bit rate mode : Variable
Overall bit rate : 3 986 Kbps
Video
ID : 334 (0x14E)
Menu ID : 19104 (0x4AA0)
Format : MPEG Video
Format version : Version 2
Format profile : Main@Main
Format settings, BVOP : Yes
Format settings, Matrix : Custom
Codec ID : 2
Duration : 28mn 26s
Bit rate mode : Variable
Bit rate : 3 659 Kbps
Maximum bit rate : 8 000 Kbps
Width : 720 pixels
Height : 576 pixels
Display aspect ratio : 4:3
Frame rate : 25.000 fps
Standard : PAL
Color space : YUV
Chroma subsampling : 4:2:0
Bit depth : 8 bits
Scan type : Interlaced
Scan order : Top Field First
Compression mode : Lossy
Bits/(Pixel*Frame) : 0.353
Stream size : 744 MiB (92%)
Audio
ID : 404 (0x194)
Menu ID : 19104 (0x4AA0)
Format : MPEG Audio
Format version : Version 1
Format profile : Layer 2
Codec ID : 3
Duration : 28mn 27s
Bit rate mode : Constant
Bit rate : 128 Kbps
Channel(s) : 2 channels
Sampling rate : 48.0 KHz
Compression mode : Lossy
Delay relative to video : -288ms
Stream size : 26.0 MiB (3%)
Language : Russian
Language, more info : Clean effects
Menu
ID : 1904 (0x770)
Menu ID : 19104 (0x4AA0)
Duration : 28mn 27s
List : 334 (0x14E) (MPEG Video) / 404 (0x194) (MPEG Audio, Russian)
Language : / Russian
Качество: DVB
Формат: TS
Видео кодек: H.264
Аудио кодек: MPEG1
Видео: MPEG2, 720x576, (4:3) ~ 3 659 Kbps, 25.000 fps, 0.353 bit/pixel
Аудио: MPEG Audio , Layer 2, 48000Hz stereo, 192kbps

Скриншоты

[teatrix.ru].t9056.torrent 
Торрент: Зарегистрирован [ 2015-10-18 18:53 ] · 4D2A68A5C32F42F7143A7CB34CC8B790EE092483

Скачать .torrent

Скачать

16 KB

Статус: проверено
Скачан: 0 раз
Размер: 811 MB
terms.php



Показать сообщения:    

Текущее время: 19-Янв 22:16

Часовой пояс: UTC + 3


Вы не можете начинать темы
Вы не можете отвечать на сообщения
Вы не можете редактировать свои сообщения
Вы не можете удалять свои сообщения
Вы не можете голосовать в опросах
Вы не можете прикреплять файлы к сообщениям
Вы можете скачивать файлы