Легенды мирового кино. Леонид Гайдай [2011, Документальный цикл, познавательный, DVB]


Статистика раздачи [Обновить пиров]
Размер:  465 MB   |    Зарегистрирован:  1 год 1 месяц   |    Скачан:  0 раз

Полного источника не было: Никогда

 
   
 
 
 

[Цитировать]

Легенды мирового кино. Леонид Гайдай
Год выпуска: 2011
Страна: Россия
Жанр: Документальный цикл, познавательный
Продолжительность: 00:25:58
Перевод: Не требуется
Русские субтитры: нет
Описание: Народный артист СССР, кинорежиссёр, сценарист и актёр Леонид Иович Гайдай родился в 1923 году в городе Свободный. Он воевал на фронтах Великой Отечественной войны, был тяжело ранен, после чего его комиссовали. В 1947 году окончил театральную студию при Иркутском областном драматическом театре, а в 1955 году – режиссёрский факультет ВГИКа. Известность пришла к режиссёру после выхода на экраны короткометражек «Пёс Барбос и необычный кросс» и «Самогонщики». Затем режиссёр выпускает кинокомедии, принятые с грандиозным успехом: «Операция «Ы» и другие приключения Шурика», «Кавказская пленница, или Новые приключения Шурика», «Бриллиантовая рука», «Иван Васильевич меняет профессию», «12 стульев».
Доп. информация:

MI

General
ID : 1 (0x1)
Complete name : C:Легенды мирового кино. Леонид Гайдай.2011_DVB_by_dean10.ts
Format : MPEG-TS
File size : 465 MiB
Duration : 25mn 58s
Overall bit rate : 2 502 Kbps
Video
ID : 251 (0xFB)
Menu ID : 1 (0x1)
Format : AVC
Format/Info : Advanced Video Codec
Format profile : Main@L3.0
Format settings, CABAC : Yes
Format settings, ReFrames : 4 frames
Codec ID : 27
Duration : 25mn 58s
Bit rate : 2 185 Kbps
Width : 720 pixels
Height : 576 pixels
Display aspect ratio : 4:3
Frame rate : 25.000 fps
Standard : Component
Color space : YUV
Chroma subsampling : 4:2:0
Bit depth : 8 bits
Scan type : Progressive
Bits/(Pixel*Frame) : 0.211
Stream size : 406 MiB (87%)
Color primaries : BT.470-6 System B, BT.470-6 System G, BT.601-6 625, BT.1358 625, BT.1700 625 PAL, BT.1700 625 SECAM
Transfer characteristics : BT.470-6 System B, BT.470-6 System G
Matrix coefficients : BT.470-6 System B, BT.470-6 System G, BT.601-6 625, BT.1358 625, BT.1700 625 PAL, BT.1700 625 SECAM, IEC 61966-2-4 601
Audio
ID : 252 (0xFC)
Menu ID : 1 (0x1)
Format : MPEG Audio
Format version : Version 1
Format profile : Layer 2
Codec ID : 3
Duration : 25mn 58s
Bit rate mode : Constant
Bit rate : 192 Kbps
Channel(s) : 2 channels
Sampling rate : 48.0 KHz
Compression mode : Lossy
Delay relative to video : -40ms
Stream size : 35.7 MiB (8%)
Language : Russian
Качество: DVB
Формат: TS
Видео кодек: H.264
Аудио кодек: MPEG1
Видео: MPEG-4 AVC, 720x576, (4:3), 25 fps, 1 483 kbps
Аудио: Russian: 48 kHz, MPEG Audio, 2 ch, 192 kbps

Скриншоты

[teatrix.ru].t9060.torrent 
Торрент: Зарегистрирован [ 2015-10-18 18:53 ] · 4B7D1F6697926DC90226ADB149DB32DB3948C846

Скачать .torrent

Скачать

19 KB

Статус: проверено
Скачан: 0 раз
Размер: 465 MB
terms.php



Показать сообщения:    

Текущее время: 09-Дек 04:54

Часовой пояс: UTC + 3


Вы не можете начинать темы
Вы не можете отвечать на сообщения
Вы не можете редактировать свои сообщения
Вы не можете удалять свои сообщения
Вы не можете голосовать в опросах
Вы не можете прикреплять файлы к сообщениям
Вы можете скачивать файлы