Величайший из когда-либо проданных фильмов / The greatest movie ever sold (Морган Сперлок / Morgan Spurlock) [2011 г., документальный, комедия, HDRip] DVO (OzzTV)


Статистика раздачи [Обновить пиров]
Размер:  781 MB   |    Зарегистрирован:  1 год 1 месяц   |    Скачан:  0 раз

Полного источника не было: Никогда

 
   
 
 
 

[Цитировать]

Величайший из когда-либо проданных фильмов
The greatest movie ever sold
- -Страна: США
Жанр: Документальный, Комедия
Год выпуска: 2011
Продолжительность: 01,27
Перевод: Профессиональный (двухголосый закадровый) -
Cубтитры: русские-Режиссер: Морган Сперлок / Morgan Spurlock-В ролях: Джей Джей Абрамс, Квентин Тарантино, Дональд Трамп, Питер Берг, Пол Бреннан, Ноам Чомски, Морган Сперлок и др.-Описание: Документальный фильм о брендах, рекламе и продакт-плейсменте, чьё существование и капитализация не были бы возможны без брендов, рекламы и продакт-плейсмента в кино.-Перевод: El Brujo
Роли озвучивали: Skleroz & Kalamurza-Сэмпл: http://multi-up.com/612975- -Качество видео: HDRip
Формат видео: AVI
Видео: 592*320 (1.85), 23.976 fps, XviD MPEG-4, ~984 kbps, 0.22 bit/pixel
Аудио #1: 44.1 kHz, MPEG Layer 3, 2 ch, ~128 kbps |Ozz.TV|
Аудио #2: 48 kHz, MPEG Layer 3, 2 ch, ~128 kbps |Original|-

MediaInfo

General
Complete name                    : E:\The.Greatest.Movie.Ever.Sold.2011.HDRip.XviD.Rus.Ozz.TV\the.greatest.movie.ever.sold.2011.hdrip.rus.ozz.tv.avi
Format                           : AVI
Format/Info                      : Audio Video Interleave
File size                        : 781 MiB
Duration                         : 1h 27mn
Overall bit rate                 : 1 248 Kbps
Writing application              : VirtualDubMod 1.5.10.2 (build 2540/release)
Writing library                  : VirtualDubMod build 2540/release
Video
ID                               : 0
Format                           : MPEG-4 Visual
Format profile                   : Advanced Simple@L5
Format settings, BVOP            : 2
Format settings, QPel            : No
Format settings, GMC             : No warppoints
Format settings, Matrix          : Default (H.263)
Muxing mode                      : Packed bitstream
Codec ID                         : XVID
Codec ID/Hint                    : XviD
Duration                         : 1h 27mn
Bit rate                         : 979 Kbps
Width                            : 592 pixels
Height                           : 320 pixels
Display aspect ratio             : 1.850
Frame rate                       : 23.976 fps
Resolution                       : 8 bits
Colorimetry                      : 4:2:0
Scan type                        : Progressive
Bits/(Pixel*Frame)               : 0.216
Stream size                      : 613 MiB (78%)
Writing library                  : XviD 57
Audio #1
ID                               : 1
Format                           : MPEG Audio
Format version                   : Version 1
Format profile                   : Layer 3
Codec ID                         : 55
Codec ID/Hint                    : MP3
Duration                         : 1h 27mn
Bit rate mode                    : Constant
Bit rate                         : 128 Kbps
Channel(s)                       : 2 channels
Sampling rate                    : 44.1 KHz
Stream size                      : 80.1 MiB (10%)
Alignment                        : Split accross interleaves
Interleave, duration             : 42 ms (1.00 video frame)
Interleave, preload duration     : 500 ms
Audio #2
ID                               : 2
Format                           : MPEG Audio
Format version                   : Version 1
Format profile                   : Layer 3
Format_Settings_Mode             : Joint stereo
Format_Settings_ModeExtension    : MS Stereo
Codec ID                         : 55
Codec ID/Hint                    : MP3
Duration                         : 1h 27mn
Bit rate mode                    : Constant
Bit rate                         : 128 Kbps
Channel(s)                       : 2 channels
Sampling rate                    : 48.0 KHz
Video delay                      : 24ms
Stream size                      : 79.4 MiB (10%)
Alignment                        : Split accross interleaves
Interleave, duration             : 42 ms (1.00 video frame)
Interleave, preload duration     : 500 ms
Writing library                  : LAME3.96Ђ

-

Скриншоты


-
-
[teatrix.ru].t9063.torrent 
Торрент: Зарегистрирован [ 2015-10-18 18:53 ] · CB5BE3094FAD9318034C814F40389A0C4DBA4680

Скачать .torrent

Скачать

16 KB

Статус: проверено
Скачан: 0 раз
Размер: 781 MB
terms.php



Показать сообщения:    

Текущее время: 03-Дек 14:34

Часовой пояс: UTC + 3


Вы не можете начинать темы
Вы не можете отвечать на сообщения
Вы не можете редактировать свои сообщения
Вы не можете удалять свои сообщения
Вы не можете голосовать в опросах
Вы не можете прикреплять файлы к сообщениям
Вы можете скачивать файлы