Пёстрая лента. Алла Ларионова и Николай Рыбников (Мария Визитей) [2002, Документальный, биография, DVB]


Статистика раздачи [Обновить пиров]
Размер:  1.23 GB   |    Зарегистрирован:  1 год 1 месяц   |    Скачан:  0 раз

Полного источника не было: Никогда

 
   
 
 
 

[Цитировать]

Пёстрая лента. Алла Ларионова и Николай Рыбников
Год выпуска: 2002
Страна: Россия, ЗАО "Шестой Телеканал"
Жанр: Документальный, биография
Продолжительность: 00:44:34
Перевод: Не требуется
Русские субтитры: нет
Рип:
Режиссер: Мария Визитей
Описание: Программа посвящена самой звездной паре отечественного кино середины прошлого века - Алле Ларионовой и Николаю Рыбникову.
Она блистала на экране, покорив своей красотой весь мир. Он, не знавший себе равных в ролях простых рабочих парней, был символом советской эпохи. Ей объяснялись в любви всемирные знаменитости. Он был человеком увлекающимся, Она — рациональным. Он любил хоккей и пропадал на стадионах, она предпочитала смотреть хоккей по телевизору. Рыбников безумно ревновал Ларионову, но она умудрялась сделать так, что ревность мужа не стала проблемой их семейной жизни. Он моментально бросил курить, когда узнал, что у него что-то с легкими. Она курила всегда и много. Последнюю сигарету выкурила за несколько часов до своей смерти. Рыбников мог вспылить из-за какого-нибудь пустяка, Ларионова стойко воспринимала самые жестокие удары судьбы и на жизнь смотрела философски-сдержанно. Рыбников гордился тем, что однолюб. Его формула жизни была очень проста: «Любимая женщина, любимый дом, любимая работа». Он совершенно искренне считал, что его жена лучше и красивее всех тогдашних мировых кинозвезд. Их любовью восхищались, ей завидовали, кто-то шипел за спиной «так не бывает». Бывает. Им было хорошо
Доп. информация: Передачу ведет: Сергей Урсуляк

MI

General
ID : 8 (0x8)
Complete name : C:Пёстрая лента. Алла Ларионова и Николай Рыбников.TS
Format : MPEG-TS
File size : 1.23 GiB
Duration : 44mn 34s
Overall bit rate mode : Variable
Overall bit rate : 3 956 Kbps
Video
ID : 340 (0x154)
Menu ID : 10811 (0x2A3B)
Format : MPEG Video
Format version : Version 2
Format profile : Main@Main
Format settings, BVOP : Yes
Format settings, Matrix : Custom
Format settings, GOP : M=3, N=12
Codec ID : 2
Duration : 44mn 33s
Bit rate mode : Variable
Bit rate : 3 567 Kbps
Maximum bit rate : 4 500 Kbps
Width : 720 pixels
Height : 576 pixels
Display aspect ratio : 4:3
Frame rate : 25.000 fps
Standard : PAL
Color space : YUV
Chroma subsampling : 4:2:0
Bit depth : 8 bits
Scan type : Interlaced
Scan order : Top Field First
Compression mode : Lossy
Bits/(Pixel*Frame) : 0.344
Stream size : 1.11 GiB (90%)
Audio
ID : 410 (0x19A)
Menu ID : 10811 (0x2A3B)
Format : MPEG Audio
Format version : Version 1
Format profile : Layer 2
Codec ID : 4
Duration : 44mn 33s
Bit rate mode : Constant
Bit rate : 192 Kbps
Channel(s) : 2 channels
Sampling rate : 48.0 KHz
Compression mode : Lossy
Delay relative to video : -189ms
Stream size : 61.2 MiB (5%)
Качество: DVB
Формат: TS
Видео кодек: MPEG2
Аудио кодек: MPEG1
Видео: MPEG2, 720x576, (4:3) ~ 4 500 Kbps, 25.000 fps, 0.344 bit/pixel
Аудио: MPEG Audio , Layer 2, 48000Hz stereo, 192kbps

Скриншоты

[teatrix.ru].t9068.torrent 
Торрент: Зарегистрирован [ 2015-10-18 18:53 ] · B103AA1D335A51C50D64B9894FF5B2DAEB7DB1E0

Скачать .torrent

Скачать

13 KB

Статус: проверено
Скачан: 0 раз
Размер: 1.23 GB
terms.php



Показать сообщения:    

Текущее время: 04-Дек 02:50

Часовой пояс: UTC + 3


Вы не можете начинать темы
Вы не можете отвечать на сообщения
Вы не можете редактировать свои сообщения
Вы не можете удалять свои сообщения
Вы не можете голосовать в опросах
Вы не можете прикреплять файлы к сообщениям
Вы можете скачивать файлы