Стоп-кадр. Гликерия Богданова-Чеснокова[2008, Документальный цикл, DVB]


Статистика раздачи [Обновить пиров]
Размер:  851 MB   |    Зарегистрирован:  1 год 3 месяца   |    Скачан:  0 раз

Полного источника не было: Никогда

 
   
 
 
 

[Цитировать]

Стоп-кадр. Гликерия Богданова-Чеснокова
Год выпуска: 2008
Страна: Украина, ATB
Жанр: Документальный цикл
Продолжительность: 00:20:14
Перевод: Не требуется
Русские субтитры: нет
Описание: "Она ворвалась на экран в фильме «Мистер Икс», заполнив своим телом все пространство. С призывным кличем «Пелика-а-ан! Пелика-а-ан!» она стала настоящей звездой. Эту актрису невозможно было не заметить. К ней невозможно остаться равнодушным. «Гликерия Богданова-Чеснокова» – прочел я в титрах и запомнил это необычное имя на всю жизнь."

Богданова-Чеснокова Гликерия Васильевна

26 мая 1904 — 17 апреля 1983, Ленинград.
Звезда оперетты, выдающаяся комедийная актриса, мастер эксцентрики и гротеска.
Заслуженная артистка РСФСР (1965),
Народная артистка РСФСР(1970).
Окончила Школу русской драмы в Петербурге (1924).
С 1924 года — артистка Александринского театра.
В 1927 актриса Петрозаводского русского театра.
В 1928-1933 годах — актриса Харьковского Театра оперетты. Работала клоуном в цирке, в 1934-1945 годах — актриса Ленинградского Мюзик-холла под управлением Леонида Утёсова, Ленинградского Театра эстрады и миниатюр под руководством Аркадия Райкина, Ансамбля оперетты под руководством Б. Бронской.
С 1946 года — актриса Ленинградского Театра музыкальной комедии.
Популярность актрисы в её родном городе была безграничной. "У вас в Москве — Раневская, а у нас — Богданова-Чеснокова", — любили говаривать ленинградцы. В годы войны она работала в ансамбле оперетты, выезжала на передовую, где дала около 3000 выступлений, за что получила орден Красной Звезды и боевые медали.
В кино с 1954 года, первая роль — Мария Михайловна в комедии "Укротительница тигров". Самой известной ролью Богдановой-Чесноковой в кино стала Каролина в оперетте "Мистер Икс". Она ворвалась на экран, заполнив своим телом всё пространство. С призывным кличем "Пелика-а-ан! Пелика-а-ан!" она стала настоящей звездой. В театре, где шёл этот же спектакль, танец Каролины всегда исполнялся на "бис" по нескольку раз.
Гликерия Васильевна была замужем дважды. Первый муж, Дмитрий Васильчиков, после развода уехал на Украину, забрав их сына, с котором Богданова-Чеснокова не виделась долгие годы, так как отец не желал этого. Дочь от второго брака погибла в блокадном Ленинграде. В тот день Гликерия Васильевна уехала с концертом на фронт. Девочка осталась с бабушкой, матерью актрисы. Когда Богданова-Чеснокова вернулась, дом был уничтожен бомбёжкой...
О творчестве актрисы снят документальный фильм "Божественная Гликерия".
Похоронена артистка на Серафимовском кладбище в Ленинграде.
призы и награды
Лауреат Государственной премии СССР (1947, за театральную работу)
два ордена Трудового Красного Знамени за работу в театре
орден Красной Звезды — за фронтовые концерты
медаль «За боевые заслуги» — за спасение машины с людьми на Ладоге, на Дороге Жизни
медаль «За оборону Ленинграда»
медаль «За победу над Германией в Великой Отечественной войне 1941-1945 гг.»
медаль «20 лет Победы в Великой Отечественной войне 1941-1945 гг.» (1965)
медаль «30 лет Победы в Великой Отечественной войне 1941-1945 гг.» (1975)
Доп. информация: Автор и ведущая: Алла Чуйковская

MI

General
ID : 19 (0x13)
Complete name : C:Стоп-кадр. Гликерия Богданова-Чеснокова.2008_DVB_by_ItarTass.TS
Format : MPEG-TS
File size : 851 MiB
Duration : 20mn 14s
Overall bit rate mode : Variable
Overall bit rate : 5 878 Kbps
Video
ID : 334 (0x14E)
Menu ID : 19104 (0x4AA0)
Format : MPEG Video
Format version : Version 2
Format profile : Main@Main
Format settings, BVOP : Yes
Format settings, Matrix : Custom
Codec ID : 2
Duration : 20mn 13s
Bit rate mode : Variable
Bit rate : 5 458 Kbps
Maximum bit rate : 8 000 Kbps
Width : 720 pixels
Height : 576 pixels
Display aspect ratio : 4:3
Frame rate : 25.000 fps
Standard : PAL
Color space : YUV
Chroma subsampling : 4:2:0
Bit depth : 8 bits
Scan type : Interlaced
Scan order : Top Field First
Compression mode : Lossy
Bits/(Pixel*Frame) : 0.526
Stream size : 790 MiB (93%)
Audio
ID : 404 (0x194)
Menu ID : 19104 (0x4AA0)
Format : MPEG Audio
Format version : Version 1
Format profile : Layer 2
Codec ID : 4
Duration : 20mn 14s
Bit rate mode : Constant
Bit rate : 128 Kbps
Channel(s) : 2 channels
Sampling rate : 48.0 KHz
Compression mode : Lossy
Delay relative to video : -696ms
Stream size : 18.5 MiB (2%)
Качество: DVB
Формат: TS
Видео кодек: MPEG2
Аудио кодек: MPEG1
Видео: MPEG2, 720x576, (4:3) ~ 5 458 Kbps, 25.000 fps, 0.526 bit/pixel
Аудио: MPEG Audio , Layer 2, 48000Hz stereo, 192kbps

Скриншоты

[teatrix.ru].t9073.torrent 
Торрент: Зарегистрирован [ 2015-10-18 18:53 ] · 4BC30DC5BA86DB67CD241D5D7F9873E19695BA83

Скачать .torrent

Скачать

17 KB

Статус: проверено
Скачан: 0 раз
Размер: 851 MB
terms.php



Показать сообщения:    

Текущее время: 19-Янв 22:16

Часовой пояс: UTC + 3


Вы не можете начинать темы
Вы не можете отвечать на сообщения
Вы не можете редактировать свои сообщения
Вы не можете удалять свои сообщения
Вы не можете голосовать в опросах
Вы не можете прикреплять файлы к сообщениям
Вы можете скачивать файлы