Стоп-кадр. Война в Афганистане в кинематографе [2010, Документальный цикл, DVB]


Статистика раздачи [Обновить пиров]
Размер:  1017 MB   |    Зарегистрирован:  1 год 1 месяц   |    Скачан:  0 раз

Полного источника не было: Никогда

 
   
 
 
 

[Цитировать]

Стоп-кадр. Война в Афганистане в кинематографе
Год выпуска: 2010
Страна: Украина, ATB
Жанр: Документальный цикл
Продолжительность: 00:40:08
Перевод: Не требуется
Русские субтитры: нет
Описание: Рискнём взяться не то что за непростую, а до сих пор кровоточащую тему войны Советского Союза в Афганистане. И начнём с совсем нового фильма «Кандагар», хотя, на первый взгляд, напрямую к делу он не относится, так как он о событиях 96-го года.
Доп. информация: Автор и ведущий: Роман Оленев

MI

General
ID : 1 (0x1)
Complete name : C:Стоп-кадр. Война в Афганистане в кинематографе.2010_DVB_by_ItarTass.ts
Format : MPEG-TS
File size : 1 017 MiB
Duration : 40mn 8s
Overall bit rate mode : Variable
Overall bit rate : 3 542 Kbps
Video
ID : 334 (0x14E)
Menu ID : 1 (0x1)
Format : MPEG Video
Format version : Version 2
Format profile : Main@Main
Format settings, BVOP : No
Format settings, Matrix : Custom
Format settings, GOP : M=1, N=34
Codec ID : 2
Duration : 40mn 8s
Bit rate mode : Variable
Bit rate : 3 238 Kbps
Maximum bit rate : 8 000 Kbps
Width : 720 pixels
Height : 576 pixels
Display aspect ratio : 4:3
Frame rate : 25.000 fps
Standard : PAL
Color space : YUV
Chroma subsampling : 4:2:0
Bit depth : 8 bits
Scan type : Interlaced
Scan order : Top Field First
Compression mode : Lossy
Bits/(Pixel*Frame) : 0.312
Stream size : 930 MiB (91%)
Audio
ID : 404 (0x194)
Menu ID : 1 (0x1)
Format : MPEG Audio
Format version : Version 1
Format profile : Layer 2
Codec ID : 3
Duration : 40mn 8s
Bit rate mode : Constant
Bit rate : 128 Kbps
Channel(s) : 2 channels
Sampling rate : 48.0 KHz
Compression mode : Lossy
Stream size : 36.7 MiB (4%)
Language : Russian
Качество: DVB
Формат: TS
Видео кодек: MPEG2
Аудио кодек: MPEG1
Видео: 720x576, (4:3) ~ 3 238 Kbps, 25.000 fps
Аудио: Russian: 48 kHz, MPEG Audio, 2 ch, 192 kbps

Скриншоты


[teatrix.ru].t9075.torrent 
Торрент: Зарегистрирован [ 2015-10-18 18:53 ] · 25A8B03840A0A80911C76A81E1CFDD17FD073238

Скачать .torrent

Скачать

20 KB

Статус: проверено
Скачан: 0 раз
Размер: 1017 MB
terms.php



Показать сообщения:    

Текущее время: 11-Дек 16:54

Часовой пояс: UTC + 3


Вы не можете начинать темы
Вы не можете отвечать на сообщения
Вы не можете редактировать свои сообщения
Вы не можете удалять свои сообщения
Вы не можете голосовать в опросах
Вы не можете прикреплять файлы к сообщениям
Вы можете скачивать файлы