Моя правда. Война и мир Сергея и Федора Бондарчуков [2009, Документальный, биография, DVB]


Статистика раздачи [Обновить пиров]
Размер:  1020 MB   |    Зарегистрирован:  1 год 1 месяц   |    Скачан:  1 раз

Полного источника не было: 11 дней

 
   
 
 
 

[Цитировать]

Моя правда. Война и мир Сергея и Федора Бондарчуков
Год выпуска: 2009
Страна: Россия, СТБ
Жанр: Документальный, биография
Продолжительность: 00:51:06
Перевод: Не требуется
Русские субтитры: нет
Описание: Сергей Бондарчук - легендарная фигура кино ХХ века. Рожденный в маленьком украинском поселке, этот человек мог гениально воплотить на экране и аристократа, и простого рабочего. А работать с ним, как с режиссером, хотели все ведущие актеры Советского Союза.
Его сын Федор Бондарчук пошел по стопам отца. Сейчас он мультипрофессионал, существующий одновременно в нескольких ипостасях. Работает в кино как режисcер, актер и продюсер, руководит компанией "Art Pictures Group", снимая музыкальные клипы и рекламные ролики, занимается ресторанным бизнесом, ведет несколько телевизионных проектов, преподает. Он живет в сумасшедшем ритме, успевая везде и выкладываясь на все сто.
О своих воспоминаниях, личной жизни, работе, прошлом и будущем семья Бондарчуков в документальном проекте "Моя правда".
В передаче также приняли участие: режиссеры Егор Кончаловский, Сергей Соловьев, Никита Михалков, исполнитель роли Ванюши в фильме «Судьба человека» Павел Полунин (Борискин), оператор фильма «Война и мир» Анатолий Петрицкий.
Доп. информация: Рип:

MI

General
ID : 8900 (0x22C4)
Complete name : C:Моя правда. Война и мир Сергея и Фёдора Бондарчуков.TS
Format : MPEG-TS
File size : 1 020 MiB
Duration : 51mn 6s
Overall bit rate mode : Variable
Overall bit rate : 2 790 Kbps
Video
ID : 330 (0x14A)
Menu ID : 10109 (0x277D)
Format : MPEG Video
Format version : Version 2
Format profile : Main@Main
Format settings, BVOP : Yes
Format settings, Matrix : Custom
Format settings, GOP : M=3, N=24
Codec ID : 2
Duration : 51mn 5s
Bit rate mode : Variable
Bit rate : 2 458 Kbps
Maximum bit rate : 15.0 Mbps
Width : 704 pixels
Height : 576 pixels
Display aspect ratio : 4:3
Frame rate : 25.000 fps
Standard : PAL
Color space : YUV
Chroma subsampling : 4:2:0
Bit depth : 8 bits
Scan type : Progressive
Scan order : Top Field First
Compression mode : Lossy
Bits/(Pixel*Frame) : 0.242
Stream size : 898 MiB (88%)
Audio
ID : 418 (0x1A2)
Menu ID : 10109 (0x277D)
Format : MPEG Audio
Format version : Version 1
Format profile : Layer 2
Codec ID : 4
Duration : 51mn 6s
Bit rate mode : Constant
Bit rate : 192 Kbps
Channel(s) : 2 channels
Sampling rate : 48.0 KHz
Compression mode : Lossy
Delay relative to video : -734ms
Stream size : 70.2 MiB (7%)
Language : Russian
Language, more info : Clean effects
Качество: DVB
Формат: TS
Видео кодек: MPEG2
Аудио кодек: MPEG1
Видео: MPEG2, 720x576, (4:3) ~ 1 459 Kbps, 25.000 fps, 0.141 bit/pixel
Аудио: MPEG Audio , Layer 2, 48000Hz stereo, 192kbps

Скриншоты

[teatrix.ru].t9077.torrent 
Торрент: Зарегистрирован [ 2015-10-18 18:53 ] · 53A85F9A0621DB10DC84E23A9C0FD01338A9DB2E

Скачать .torrent

Скачать

20 KB

Статус: проверено
Скачан: 1 раз
Размер: 1020 MB
terms.php



Показать сообщения:    

Текущее время: 07-Дек 19:26

Часовой пояс: UTC + 3


Вы не можете начинать темы
Вы не можете отвечать на сообщения
Вы не можете редактировать свои сообщения
Вы не можете удалять свои сообщения
Вы не можете голосовать в опросах
Вы не можете прикреплять файлы к сообщениям
Вы можете скачивать файлы