Стоп-кадр. Александр Петров [2009, Документальный цикл, DVB]


Статистика раздачи [Обновить пиров]
Размер:  448 MB   |    Зарегистрирован:  1 год 1 месяц   |    Скачан:  0 раз

Полного источника не было: Никогда

 
   
 
 
 

[Цитировать]

Стоп-кадр. Александр Петров
Год выпуска: 2009
Страна: Украина, ATB
Жанр: Документальный цикл
Продолжительность: 00:22:15
Перевод: Не требуется
Русские субтитры: нет
Рип:
Описание:
Алекса́ндр Константи́нович Петро́в (род. 17 июля 1957, с. Пречистое, Ярославская область) — российский художник-мультипликатор. Живёт и работает в Ярославле.
Лауреат Государственной премии РСФСР имени Н. К. Крупской за 1990 год и Государственной премии России за 1995 год. Заслуженный деятель искусств Российской Федерации. Член Союза кинематографистов России, член Международной ассоциации аниматоров (АСИФА), член Американской киноакадемии. Лауреат премии «Оскар» (2000 год) за мультфильм «Старик и море».
Доп. информация: Автор и ведущий: Роман Оленев

MI

General
ID : 100 (0x64)
Complete name : C:Стоп-кадр. Александр Петров.2009_DVB_by_ItarTass.TS
Format : MPEG-TS
File size : 448 MiB
Duration : 22mn 15s
Overall bit rate mode : Variable
Overall bit rate : 2 810 Kbps
Video
ID : 7081 (0x1BA9)
Menu ID : 7080 (0x1BA8)
Format : MPEG Video
Format version : Version 2
Format profile : Main@Main
Format settings, BVOP : No
Format settings, Matrix : Custom
Format settings, GOP : M=1, N=23
Codec ID : 2
Duration : 22mn 15s
Bit rate mode : Variable
Bit rate : 2 542 Kbps
Maximum bit rate : 15.0 Mbps
Width : 720 pixels
Height : 576 pixels
Display aspect ratio : 4:3
Frame rate : 25.000 fps
Standard : PAL
Color space : YUV
Chroma subsampling : 4:2:0
Bit depth : 8 bits
Scan type : Interlaced
Scan order : Top Field First
Compression mode : Lossy
Bits/(Pixel*Frame) : 0.245
Stream size : 405 MiB (90%)
Audio
ID : 7082 (0x1BAA)
Menu ID : 7080 (0x1BA8)
Format : MPEG Audio
Format version : Version 1
Format profile : Layer 2
Codec ID : 3
Duration : 22mn 15s
Bit rate mode : Constant
Bit rate : 128 Kbps
Channel(s) : 2 channels
Sampling rate : 48.0 KHz
Compression mode : Lossy
Delay relative to video : -672ms
Stream size : 20.4 MiB (5%)
Language : Russian
Language, more info : Clean effects
Menu
ID : 6011 (0x177B)
Menu ID : 7080 (0x1BA8)
Duration : 22mn 15s
List : 7081 (0x1BA9) (MPEG Video) / 7082 (0x1BAA) (MPEG Audio, Russian)
Language : / Russian
Качество: DVB
Формат: TS
Видео кодек: MPEG2
Аудио кодек: MPEG1
Видео:720x576, (4:3) ~ 2 542 Kbps, 25.000 fps
Аудио: Russian: 48 kHz, MPEG Audio, 2 ch, 192 kbps

Скриншоты

[teatrix.ru].t9079.torrent 
Торрент: Зарегистрирован [ 2015-10-18 18:53 ] · E9F501F6E08F48A48CB47267C21EA622860DB624

Скачать .torrent

Скачать

18 KB

Статус: проверено
Скачан: 0 раз
Размер: 448 MB
terms.php



Показать сообщения:    

Текущее время: 10-Дек 23:32

Часовой пояс: UTC + 3


Вы не можете начинать темы
Вы не можете отвечать на сообщения
Вы не можете редактировать свои сообщения
Вы не можете удалять свои сообщения
Вы не можете голосовать в опросах
Вы не можете прикреплять файлы к сообщениям
Вы можете скачивать файлы