Стоп-кадр. Брат 1-2 [2009, Документальный цикл, DVB]


Статистика раздачи [Обновить пиров]
Размер:  872 MB   |    Зарегистрирован:  1 год 2 месяца   |    Скачан:  0 раз

Полного источника не было: Никогда

 
   
 
 
 

[Цитировать]

Стоп-кадр. Брат 1-2
Год выпуска: 2009
Страна: Россия, ATB
Жанр: Документальный цикл
Продолжительность: 00:37:57
Перевод: Не требуется
Русские субтитры: нет
Рип:
Описание: В прошлый раз мы с вами убедились, что такой замечательный киногерой как Чапаев, оказался мифологизированным, по сути — сказочным персонажем. Давайте же продолжим тему мифологизации в кино и рассмотрим свежие примеры: киноленты Балабанова «Брат» и «Брат-2».
Доп. информация: Автор и ведущий: Роман Оленев

MI

General
ID : 19 (0x13)
Complete name : C:Стоп-кадр. Брат_1_2..TS
Format : MPEG-TS
File size : 872 MiB
Duration : 37mn 57s
Overall bit rate mode : Variable
Overall bit rate : 3 213 Kbps
Video
ID : 334 (0x14E)
Menu ID : 19104 (0x4AA0)
Format : MPEG Video
Format version : Version 2
Format profile : Main@Main
Format settings, BVOP : Yes
Format settings, Matrix : Custom
Codec ID : 2
Duration : 37mn 55s
Bit rate mode : Variable
Bit rate : 2 924 Kbps
Maximum bit rate : 8 000 Kbps
Width : 720 pixels
Height : 576 pixels
Display aspect ratio : 4:3
Frame rate : 25.000 fps
Standard : PAL
Color space : YUV
Chroma subsampling : 4:2:0
Bit depth : 8 bits
Scan type : Interlaced
Scan order : Top Field First
Compression mode : Lossy
Bits/(Pixel*Frame) : 0.282
Stream size : 793 MiB (91%)
Audio
ID : 404 (0x194)
Menu ID : 19104 (0x4AA0)
Format : MPEG Audio
Format version : Version 1
Format profile : Layer 2
Codec ID : 3
Duration : 37mn 57s
Bit rate mode : Constant
Bit rate : 128 Kbps
Channel(s) : 2 channels
Sampling rate : 48.0 KHz
Compression mode : Lossy
Delay relative to video : -504ms
Stream size : 34.7 MiB (4%)
Language : Russian
Language, more info : Clean effects
Menu
ID : 1904 (0x770)
Menu ID : 19104 (0x4AA0)
Duration : 37mn 57s
List : 334 (0x14E) (MPEG Video) / 404 (0x194) (MPEG Audio, Russian)
Language : / Russian
Качество: DVB
Формат: TS
Видео кодек: MPEG2
Аудио кодек: MPEG1
Видео: 720x576, (4:3) ~ 2 924 Kbps, 25.000 fps
Аудио: MPEG Audio , Layer 2, 48000Hz stereo, 192kbps

Скриншоты

[teatrix.ru].t9085.torrent 
Торрент: Зарегистрирован [ 2015-10-18 18:53 ] · 8CF0C880BDBFB74A5912CC5D62B250CE4B69B6C4

Скачать .torrent

Скачать

18 KB

Статус: проверено
Скачан: 0 раз
Размер: 872 MB
terms.php



Показать сообщения:    

Текущее время: 18-Янв 02:33

Часовой пояс: UTC + 3


Вы не можете начинать темы
Вы не можете отвечать на сообщения
Вы не можете редактировать свои сообщения
Вы не можете удалять свои сообщения
Вы не можете голосовать в опросах
Вы не можете прикреплять файлы к сообщениям
Вы можете скачивать файлы