Петр Чайковский (Pyotr Tchaikovsky) - Violin Concerto (Rheingau Musik Festival 2011) Tchaikovsky Symphony Orchestra, Владимир Федосеев (Fedoseyev), Patricia Kopatchinskaja [2011, Classical / Orchestral, HDTV 720p]


 

[Цитировать]

Peter Iljitsch Tschaikowsky
Violinkonzert D-Dur op. 35

Patricia Kopatchinskaja • Tchaikovsky Symphony Orchestra • Vladimir Fedoseyev

-
Год выпуска: 2011
Лейбл: ZDF
Жанр: Classical / Orchestral
Продолжительность: 00:43:11
Режиссер: Hanne Kaisik
Исполнители:
Patricia Kopatchinskaja - violine
Tchaikovsky Symphony Orchestra
Vladimir Fedoseyev - leitung
Треклист:
Pyotr Tchaikovsky - Violinkonzert D-Dur op. 35
Jorge Sanchez-Chiong - Crin
Доп. информация:
Rheingau Musik Festival 2011
Tschaikowsky interpretiert von Patricia Kopatchinskaja arte.tv
Tchaikovsky Symphony Orchestra Official Site
Tchaikovsky Symphony Orchestra from Wikipedia, the free encyclopedia
Patricia Kopatchinskaja Official Site
Patricia Kopatchinskaja from Wikipedia, the free encyclopedia
Patricia Kopatchinskaja материал из Википедии - свободной энциклопедии
Качество видео: HDTV 720p
Контейнер: TS
Видео кодек: H.264
Аудио кодек: AC3
Видео поток: Overall bit rate: 14.1 Mbps, 1280*720 (16:9), at 50.000 fps, AVC (High@L4.0) (CABAC / 4 Ref Frames)
Аудио поток: German, 192 Kbps, 48.0 KHz, 2 channels, MPEG Audio (Version 1) (Layer 2)
Аудио 2: French, 192 Kbps, 48.0 KHz, 2 channels, MPEG Audio (Version 1) (Layer 2)
Аудио 3: Multiple languages, 448 Kbps, 48.0 KHz, 16 bits, 6 channels, AC-3
Аудио 4: 192 Kbps, 48.0 KHz, 2 channels, MPEG Audio (Version 1) (Layer 2)
Источник: Digital Satellite > SkyStar HD2 (TechniSat) > raw data to HDD > Cypheros TS-Doctor > Smart Cutter (cut) > ts

MediaInfo

GeneralID : 8900 (0x22C4)Complete name : C:\rutracker.org_HD\arte HD_Tschaikowsky, Violinkonzert (Patricia Kopatchinskaja) 2011.tsFormat : MPEG-TSFile size : 4.27 GiBDuration : 43mn 11sOverall bit rate mode : VariableOverall bit rate : 14.1 Mbps
VideoID : 5111 (0x13F7)Menu ID : 10302 (0x283E)Format : AVCFormat/Info : Advanced Video CodecFormat profile : High@L4.0Format settings, CABAC : YesFormat settings, ReFrames : 4 framesFormat settings, GOP : M=6, N=32Codec ID : 27Duration : 43mn 11sBit rate : 12.4 MbpsWidth : 1 280 pixelsHeight : 720 pixelsDisplay aspect ratio : 16:9Frame rate : 50.000 fpsColor space : YUVChroma subsampling : 4:2:0Bit depth : 8 bitsScan type : ProgressiveBits/(Pixel*Frame) : 0.269Stream size : 3.74 GiB (88%)
Audio #1ID : 5112 (0x13F8)Menu ID : 10302 (0x283E)Format : MPEG AudioFormat version : Version 1Format profile : Layer 2Codec ID : 3Duration : 43mn 11sBit rate mode : ConstantBit rate : 192 KbpsChannel(s) : 2 channelsSampling rate : 48.0 KHzCompression mode : LossyDelay relative to video : -11msStream size : 59.3 MiB (1%)Language : German
Audio #2ID : 5113 (0x13F9)Menu ID : 10302 (0x283E)Format : MPEG AudioFormat version : Version 1Format profile : Layer 2Codec ID : 3Duration : 43mn 11sBit rate mode : ConstantBit rate : 192 KbpsChannel(s) : 2 channelsSampling rate : 48.0 KHzCompression mode : LossyDelay relative to video : -11msStream size : 59.3 MiB (1%)Language : French
Audio #3ID : 5116 (0x13FC)Menu ID : 10302 (0x283E)Format : AC-3Format/Info : Audio Coding 3Mode extension : CM (complete main)Format settings, Endianness : BigCodec ID : 6Duration : 43mn 11sBit rate mode : ConstantBit rate : 448 KbpsChannel(s) : 6 channelsChannel positions : Front: L C R, Side: L R, LFESampling rate : 48.0 KHzBit depth : 16 bitsCompression mode : LossyDelay relative to video : -15msStream size : 138 MiB (3%)Language : Multiple languages
Audio #4ID : 5117 (0x13FD)Menu ID : 10302 (0x283E)Format : MPEG AudioFormat version : Version 1Format profile : Layer 2Codec ID : 3Duration : 43mn 11sBit rate mode : ConstantBit rate : 192 KbpsChannel(s) : 2 channelsSampling rate : 48.0 KHzCompression mode : LossyDelay relative to video : -2msStream size : 59.3 MiB (1%)
... info ...">

Скриншоты ... info ...


Sie steht barfuß auf der Bühne und stampft mit nackten Füßen im Takt ihrer Musik. Die junge Geigerin Patricia Kopatchinskaja ist bekannt für ihr unkonventionelles und expressives Auftreten. ARTE zeigt ihre Interpretation von Tschaikowskys Violinkonzert D-Dur op. 35 im Rahmen des Rheingau-Musikfestivals im Sommer vergangenen Jahres.
Patricia Kopatchinskaja ist zweifelsohne eine der schillerndsten Geigerinnen der jungen Generation. Mit ihren eigenwilligen, temperamentvollen Interpretationen fällt sie auf in der klassischen Musikszene. Nicht ohne Grund wird die gebürtige Moldauerin bereits als „engelsgesichtige Musikbesessene“ bezeichnet. So verzichtet sie bei ihren Auftritten gerne auf Schuhwerk und stampft auf der Bühne mit nackten Füßen gegen die Konventionen des Klassikbetriebes an.
Auch beim Rheingau Musik Festival 2011 betritt Patricia Kopatchinskaja barfuß die Bühne des Wiesbadener Kurhauses und spielt mit dem Tchaikovsky Symphony Orchestra unter der Leitung von Vladimir Fedoseyev ein Vorzeigestück der klassischen Geigenliteratur: Tschaikowskys Violinkonzert D-Dur op. 35.
Es ist das einzige Violinkonzert des russischen Komponisten und galt anfänglich als für die Geige unspielbar. Zudem war es lange aufgrund seiner hemmungslosen Sentimentalität und seiner derben Ausbrüche umstritten. Mittlerweile zählt das Werk jedoch zu den bekanntesten und meistgespielten Violinkonzerten überhaupt.
~ arte.tv/guide



Показать сообщения:    

Текущее время: 09-Дек 16:37

Часовой пояс: UTC + 3


Вы не можете начинать темы
Вы не можете отвечать на сообщения
Вы не можете редактировать свои сообщения
Вы не можете удалять свои сообщения
Вы не можете голосовать в опросах
Вы не можете прикреплять файлы к сообщениям
Вы не можете скачивать файлы