(Opera) Bizet - Carmen / Жорж Бизе - Кармен (Alperyn, Lamberti, Titus, Palade - Slovak Philharmonic Chorus - Czecho-Slovak Radio Symphony Orchestra, Rahbari) - 1990, APE (image+.cue) lossless


 

[Цитировать]

Georges Bizet - Carmen
Жанр: Opera
Страна-производитель диска: Germany
Год издания диска: 1990
Издатель (лейбл): Naxos
Номер по каталогу: 8.660005-7
Дата записи: 1990
Аудиокодек: APE
Тип рипа: image+.cue
Битрейт аудио: lossless
Продолжительность: 49'05+39'49+55.07
Источник: собственный рип
Наличие сканов в содержимом раздачи: да
Треклист:

CD1

1. Prelude
Act 1
2. Sur la place3. Regardez donc cette petite
4. Avec la garde montante
5. La cloche a sonnée
6. La voilà! La voilà!
7. L'amour est un oiseau rebelle
8. Carmen! Sur tes pas nous nous pressons tous
9. Parle-moi de ma mère
10. Au secours! N'entendez-vous pas?
11. Tra la la la, coupe-moi
12. Près des remparts de Séville
13. Voici l'ordre, partez

CD2

1. Entr'acte
Act 2
2. Les tringles des sistres tintaient
3. Vivat! Vivat le Toréro!
4. Votre toast, je peux vous le rendre
5. Nous avons en tête une affaire
6. Halte-là! Qui va là?
7. Je vais danser en votre honneur
8. Lalalala - Attends un peu, Carmen
9. La fleur que tu m'avais jetée
10. Holà! Carmen! Holà holà!
11. Bel officier, bel officier

CD3

1. Entr'acte
Act 3
2. Écoute, écoute, compagnon
3. Mélons! Coupons!
4. Quant au douanier, c'est noter affaire!
5. Je dis que rien ne m'épouvante
6. Je suis Escamillo
7. Holà! Holà! José!
8. Moi je viens te chercher!
9. Hélas! José
10. Entr'acte
Act 4
11. A deux cuartos!
12. Les voici! Les voici!
Исполнители:
Georges Bizet - Carmen
Opera in 4 Acts
Carmen - Graciela Alperyn
Don José - Giorgio Lamberti
Escamillo - Alan Titus
Micaëla - Doina Palade
Mercédès - Dalia Schaechter
Frasquita - Ann Liebeck
Slovak Philharmonic Chorus
Bratislava Children's Choir
Czecho-Slovak Radio Symphony Orchestra
Alexander Rahbari

Лог создания рипа

CD1

Exact Audio Copy V1.0 beta 6 from 9. April 2015
EAC extraction logfile from 18. October 2015, 14:56
Alperyn_Lamberti_Titus_Palade_Czecho-Slovak_Radio_SO_Rahbari / Bizet - Carmen, Rahbari CD1
Used drive : TSSTcorpCDDVDW SE-208AB Adapter: 1 ID: 1
Read mode : Secure
Utilize accurate stream : Yes
Defeat audio cache : Yes
Make use of C2 pointers : No
Read offset correction : 6
Overread into Lead-In and Lead-Out : No
Fill up missing offset samples with silence : Yes
Delete leading and trailing silent blocks : No
Null samples used in CRC calculations : Yes
Used interface : Native Win32 interface for Win NT & 2000
Used output format : Monkey's Audio Lossless Encoder
Selected bitrate : High Lossless Compression
Quality : High
Add ID3 tag : Yes
Command line compressor : C:\Program Files (x86)\Exact Audio Copy\MAC\MAC.exe
TOC of the extracted CD
Track | Start | Length | Start sector | End sector
---------------------------------------------------------
1 | 0:00.00 | 3:34.53 | 0 | 16102
2 | 3:34.53 | 1:52.30 | 16103 | 24532
3 | 5:27.08 | 4:03.22 | 24533 | 42779
4 | 9:30.30 | 4:22.48 | 42780 | 62477
5 | 13:53.03 | 3:58.00 | 62478 | 80327
6 | 17:51.03 | 1:14.10 | 80328 | 85887
7 | 19:05.13 | 4:49.72 | 85888 | 107634
8 | 23:55.10 | 2:34.05 | 107635 | 119189
9 | 26:29.15 | 9:31.20 | 119190 | 162034
10 | 36:00.35 | 2:56.23 | 162035 | 175257
11 | 38:56.58 | 3:28.52 | 175258 | 190909
12 | 42:25.35 | 4:20.03 | 190910 | 210412
13 | 46:45.38 | 2:21.37 | 210413 | 221024
Range status and errors
Selected range
Filename D:\EAC\Bizet - Carmen, Rahbari CD1.wav
Peak level 100.0 %
Extraction speed 4.1 X
Range quality 100.0 %
Test CRC 2E8E874E
Copy CRC 2E8E874E
Copy OK
No errors occurred
AccurateRip summary
Track 1 accurately ripped (confidence 4) [0A92004F] (AR v2)
Track 2 accurately ripped (confidence 4) [06961C92] (AR v2)
Track 3 accurately ripped (confidence 4) [567DF641] (AR v2)
Track 4 accurately ripped (confidence 4) [E2850640] (AR v2)
Track 5 accurately ripped (confidence 4) [8E83BD61] (AR v2)
Track 6 accurately ripped (confidence 4) [40E91203] (AR v2)
Track 7 accurately ripped (confidence 4) [F1BD4FC1] (AR v2)
Track 8 accurately ripped (confidence 4) [9FD53700] (AR v2)
Track 9 accurately ripped (confidence 4) [2D80F290] (AR v2)
Track 10 accurately ripped (confidence 4) [0F33F114] (AR v2)
Track 11 accurately ripped (confidence 4) [CFF42827] (AR v2)
Track 12 accurately ripped (confidence 4) [8B75B0F8] (AR v2)
Track 13 accurately ripped (confidence 4) [8E1CD54E] (AR v2)
All tracks accurately ripped
End of status report
---- CUETools DB Plugin V2.1.6
[CTDB TOCID: 0_HTuaRjQtGJ8E.W4Ivo8B27OuA-] found
Submit result: 0_HTuaRjQtGJ8E.W4Ivo8B27OuA- has been confirmed
Track | CTDB Status
1 | (8/8) Accurately ripped
2 | (8/8) Accurately ripped
3 | (8/8) Accurately ripped
4 | (8/8) Accurately ripped
5 | (8/8) Accurately ripped
6 | (8/8) Accurately ripped
7 | (8/8) Accurately ripped
8 | (8/8) Accurately ripped
9 | (8/8) Accurately ripped
10 | (8/8) Accurately ripped
11 | (8/8) Accurately ripped
12 | (8/8) Accurately ripped
13 | (8/8) Accurately ripped
==== Log checksum A0B656EDEA3648E8F52EAC8AB6C7D15418D964AAE93D2B6245035FD828CF3F6B ====

CD2

Exact Audio Copy V1.0 beta 6 from 9. April 2015
EAC extraction logfile from 18. October 2015, 14:33
Alperyn_Lamberti_Titus_Palade_Czecho-Slovak_Radio_SO_Rahbari / Bizet - Carmen, Rahbari CD2
Used drive : TS8XDVDSTRANSCEND Adapter: 1 ID: 2
Read mode : Secure
Utilize accurate stream : Yes
Defeat audio cache : Yes
Make use of C2 pointers : No
Read offset correction : 6
Overread into Lead-In and Lead-Out : No
Fill up missing offset samples with silence : Yes
Delete leading and trailing silent blocks : No
Null samples used in CRC calculations : Yes
Used interface : Native Win32 interface for Win NT & 2000
Used output format : Monkey's Audio Lossless Encoder
Selected bitrate : High Lossless Compression
Quality : High
Add ID3 tag : Yes
Command line compressor : C:\Program Files (x86)\Exact Audio Copy\MAC\MAC.exe
TOC of the extracted CD
Track | Start | Length | Start sector | End sector
---------------------------------------------------------
1 | 0:00.00 | 1:37.65 | 0 | 7339
2 | 1:37.65 | 6:16.28 | 7340 | 35567
3 | 7:54.18 | 0:50.05 | 35568 | 39322
4 | 8:44.23 | 6:06.67 | 39323 | 66839
5 | 14:51.15 | 4:54.63 | 66840 | 88952
6 | 19:46.03 | 1:18.65 | 88953 | 94867
7 | 21:04.68 | 1:39.55 | 94868 | 102347
8 | 22:44.48 | 4:45.45 | 102348 | 123767
9 | 27:30.18 | 7:41.07 | 123768 | 158349
10 | 35:11.25 | 1:14.60 | 158350 | 163959
11 | 36:26.10 | 3:24.15 | 163960 | 179274
Range status and errors
Selected range
Filename D:\EAC\Bizet - Carmen, Rahbari CD2.wav
Peak level 100.0 %
Extraction speed 1.6 X
Range quality 100.0 %
Test CRC 7F93B53C
Copy CRC 7F93B53C
Copy OK
No errors occurred
AccurateRip summary
Track 1 accurately ripped (confidence 3) [4A11E6A1] (AR v2)
Track 2 accurately ripped (confidence 3) [47D63A65] (AR v2)
Track 3 accurately ripped (confidence 3) [22E3B132] (AR v2)
Track 4 accurately ripped (confidence 3) [B144B28E] (AR v2)
Track 5 accurately ripped (confidence 3) [C710622E] (AR v2)
Track 6 accurately ripped (confidence 3) [B16268C1] (AR v2)
Track 7 accurately ripped (confidence 3) [9CD75DEC] (AR v2)
Track 8 accurately ripped (confidence 3) [3278DC64] (AR v2)
Track 9 accurately ripped (confidence 3) [E315848F] (AR v2)
Track 10 accurately ripped (confidence 3) [E9FCC829] (AR v2)
Track 11 accurately ripped (confidence 3) [C145B9A0] (AR v2)
All tracks accurately ripped
End of status report
---- CUETools DB Plugin V2.1.6
[CTDB TOCID: 2SXInVEqhZeTLPh7dCE8pB7IWdk-] found
Submit result: unrecognized or virtual drive
Track | CTDB Status
1 | (7/7) Accurately ripped
2 | (7/7) Accurately ripped
3 | (7/7) Accurately ripped
4 | (7/7) Accurately ripped
5 | (7/7) Accurately ripped
6 | (7/7) Accurately ripped
7 | (7/7) Accurately ripped
8 | (7/7) Accurately ripped
9 | (7/7) Accurately ripped
10 | (7/7) Accurately ripped
11 | (7/7) Accurately ripped
==== Log checksum 7E45F44691A6A3431819AD397819EF3B03147E3CAE43745AAE9CD0580304732C ====

CD3

Exact Audio Copy V1.0 beta 6 from 9. April 2015
EAC extraction logfile from 18. October 2015, 15:04
Alperyn_Lamberti_Titus_Palade_Czecho-Slovak_Radio_SO_Rahbari / Bizet - Carmen, Rahbari CD3
Used drive : TS8XDVDSTRANSCEND Adapter: 1 ID: 2
Read mode : Secure
Utilize accurate stream : Yes
Defeat audio cache : Yes
Make use of C2 pointers : No
Read offset correction : 6
Overread into Lead-In and Lead-Out : No
Fill up missing offset samples with silence : Yes
Delete leading and trailing silent blocks : No
Null samples used in CRC calculations : Yes
Used interface : Native Win32 interface for Win NT & 2000
Used output format : Monkey's Audio Lossless Encoder
Selected bitrate : High Lossless Compression
Quality : High
Add ID3 tag : Yes
Command line compressor : C:\Program Files (x86)\Exact Audio Copy\MAC\MAC.exe
TOC of the extracted CD
Track | Start | Length | Start sector | End sector
---------------------------------------------------------
1 | 0:00.00 | 3:10.35 | 0 | 14284
2 | 3:10.35 | 4:45.05 | 14285 | 35664
3 | 7:55.40 | 7:46.58 | 35665 | 70672
4 | 15:42.23 | 3:10.65 | 70673 | 84987
5 | 18:53.13 | 5:19.42 | 84988 | 108954
6 | 24:12.55 | 2:33.68 | 108955 | 120497
7 | 26:46.48 | 3:04.07 | 120498 | 134304
8 | 29:50.55 | 2:56.45 | 134305 | 147549
9 | 32:47.25 | 1:52.63 | 147550 | 156012
10 | 34:40.13 | 2:21.70 | 156013 | 166657
11 | 37:02.08 | 2:14.20 | 166658 | 176727
12 | 39:16.28 | 15:52.47 | 176728 | 248174
Range status and errors
Selected range
Filename D:\EAC\Bizet - Carmen, Rahbari CD3.wav
Peak level 100.0 %
Extraction speed 4.4 X
Range quality 100.0 %
Test CRC 280D0859
Copy CRC 280D0859
Copy OK
No errors occurred
AccurateRip summary
Track 1 accurately ripped (confidence 4) [36B50A6B] (AR v2)
Track 2 accurately ripped (confidence 4) [A5CC92ED] (AR v2)
Track 3 accurately ripped (confidence 4) [0D1BA8ED] (AR v2)
Track 4 accurately ripped (confidence 4) [EB94B031] (AR v2)
Track 5 accurately ripped (confidence 4) [640BC32A] (AR v2)
Track 6 accurately ripped (confidence 4) [C27B8CA4] (AR v2)
Track 7 accurately ripped (confidence 4) [C5CA75D1] (AR v2)
Track 8 accurately ripped (confidence 4) [2047CF0B] (AR v2)
Track 9 accurately ripped (confidence 4) [B6683764] (AR v2)
Track 10 accurately ripped (confidence 4) [57A1D046] (AR v2)
Track 11 accurately ripped (confidence 4) [7F26D001] (AR v2)
Track 12 accurately ripped (confidence 4) [DC230958] (AR v2)
All tracks accurately ripped
End of status report
---- CUETools DB Plugin V2.1.6
[CTDB TOCID: jvJ5TLQ58FqflSyz6D_gcp7Th7Y-] found
Submit result: unrecognized or virtual drive
Track | CTDB Status
1 | (8/8) Accurately ripped
2 | (7/8) Accurately ripped
3 | (7/8) Accurately ripped
4 | (8/8) Accurately ripped
5 | (8/8) Accurately ripped
6 | (8/8) Accurately ripped
7 | (8/8) Accurately ripped
8 | (8/8) Accurately ripped
9 | (7/8) Accurately ripped
10 | (7/8) Accurately ripped
11 | (7/8) Accurately ripped
12 | (7/8) Accurately ripped
==== Log checksum FCAA12473445CD1AC26000A1D5AEED8E3A269DD00A009FA4ED765999098603C9 ====

Содержание индексной карты (.CUE)

CD1

REM GENRE Opera
REM DATE 1990
REM DISCID AC0B830D
REM COMMENT "ExactAudioCopy v1.0b6"
PERFORMER "Alperyn_Lamberti_Titus_Palade_Czecho-Slovak_Radio_SO_Rahbari"
TITLE "Bizet - Carmen, Rahbari CD1"
FILE "Bizet - Carmen, Rahbari CD1.ape" WAVE
TRACK 01 AUDIO
TITLE "Prelude"
PERFORMER "Alperyn_Lamberti_Titus_Palade_Czecho-Slovak_Radio_SO_Rahbari"
INDEX 01 00:00:00
TRACK 02 AUDIO
TITLE "Scene & Chorus: Sur la place"
PERFORMER "Alperyn_Lamberti_Titus_Palade_Czecho-Slovak_Radio_SO_Rahbari"
INDEX 01 03:34:53
TRACK 03 AUDIO
TITLE "Regardez donc cette petite"
PERFORMER "Alperyn_Lamberti_Titus_Palade_Czecho-Slovak_Radio_SO_Rahbari"
INDEX 01 05:27:08
TRACK 04 AUDIO
TITLE "Chorus of Street-boys: Avec la garde montante"
PERFORMER "Alperyn_Lamberti_Titus_Palade_Czecho-Slovak_Radio_SO_Rahbari"
INDEX 01 09:30:30
TRACK 05 AUDIO
TITLE "Chorus of Cigarette-factory Girls: La cloche a sonnee"
PERFORMER "Alperyn_Lamberti_Titus_Palade_Czecho-Slovak_Radio_SO_Rahbari"
INDEX 01 13:53:03
TRACK 06 AUDIO
TITLE "La voila! La voila!"
PERFORMER "Alperyn_Lamberti_Titus_Palade_Czecho-Slovak_Radio_SO_Rahbari"
INDEX 01 17:51:03
TRACK 07 AUDIO
TITLE "Habanera: L'amour est un oiseau rebelle"
PERFORMER "Alperyn_Lamberti_Titus_Palade_Czecho-Slovak_Radio_SO_Rahbari"
INDEX 01 19:05:13
TRACK 08 AUDIO
TITLE "Scene: Carmen! sur tes pas nous nous pressons tous"
PERFORMER "Alperyn_Lamberti_Titus_Palade_Czecho-Slovak_Radio_SO_Rahbari"
INDEX 01 23:55:10
TRACK 09 AUDIO
TITLE "Duet: Parle-moi de ma mere"
PERFORMER "Alperyn_Lamberti_Titus_Palade_Czecho-Slovak_Radio_SO_Rahbari"
INDEX 01 26:29:15
TRACK 10 AUDIO
TITLE "Au secours! n'entendrez-vous pas?"
PERFORMER "Alperyn_Lamberti_Titus_Palade_Czecho-Slovak_Radio_SO_Rahbari"
INDEX 01 36:00:35
TRACK 11 AUDIO
TITLE "Tra la la la, coupe-moi"
PERFORMER "Alperyn_Lamberti_Titus_Palade_Czecho-Slovak_Radio_SO_Rahbari"
INDEX 01 38:56:58
TRACK 12 AUDIO
TITLE "Seguidilla & Duet: Pres des remparts de Seville"
PERFORMER "Alperyn_Lamberti_Titus_Palade_Czecho-Slovak_Radio_SO_Rahbari"
INDEX 01 42:25:35
TRACK 13 AUDIO
TITLE "Finale: Voico l'ordre, partez"
PERFORMER "Alperyn_Lamberti_Titus_Palade_Czecho-Slovak_Radio_SO_Rahbari"
INDEX 01 46:45:38

CD2

REM GENRE Opera
REM DATE 1990
REM DISCID 9F09560B
REM COMMENT "ExactAudioCopy v1.0b6"
PERFORMER "Alperyn_Lamberti_Titus_Palade_Czecho-Slovak_Radio_SO_Rahbari"
TITLE "Bizet - Carmen, Rahbari CD2"
FILE "Bizet - Carmen, Rahbari CD2.ape" WAVE
TRACK 01 AUDIO
TITLE "Entr'acte"
PERFORMER "Alperyn_Lamberti_Titus_Palade_Czecho-Slovak_Radio_SO_Rahbari"
INDEX 01 00:00:00
TRACK 02 AUDIO
TITLE "Gypsy Song: Les tringles des sistres tintaient"
PERFORMER "Alperyn_Lamberti_Titus_Palade_Czecho-Slovak_Radio_SO_Rahbari"
INDEX 01 01:37:65
TRACK 03 AUDIO
TITLE "Chorus: Vivat! vivat le Toréro!"
PERFORMER "Alperyn_Lamberti_Titus_Palade_Czecho-Slovak_Radio_SO_Rahbari"
INDEX 01 07:54:18
TRACK 04 AUDIO
TITLE "Couplets: Votre toast, je peux vous le rendre"
PERFORMER "Alperyn_Lamberti_Titus_Palade_Czecho-Slovak_Radio_SO_Rahbari"
INDEX 01 08:44:23
TRACK 05 AUDIO
TITLE "Quintet: Nous avons en tête une affaire"
PERFORMER "Alperyn_Lamberti_Titus_Palade_Czecho-Slovak_Radio_SO_Rahbari"
INDEX 01 14:51:15
TRACK 06 AUDIO
TITLE "Canzonetta: Haite-là! qui va là?"
PERFORMER "Alperyn_Lamberti_Titus_Palade_Czecho-Slovak_Radio_SO_Rahbari"
INDEX 01 19:46:03
TRACK 07 AUDIO
TITLE "Duet: Je vais danser en votre honneur"
PERFORMER "Alperyn_Lamberti_Titus_Palade_Czecho-Slovak_Radio_SO_Rahbari"
INDEX 01 21:04:68
TRACK 08 AUDIO
TITLE "Lalalala - Attende un peu, Carmen"
PERFORMER "Alperyn_Lamberti_Titus_Palade_Czecho-Slovak_Radio_SO_Rahbari"
INDEX 01 22:44:48
TRACK 09 AUDIO
TITLE "La fleur que tu m'avais jetée"
PERFORMER "Alperyn_Lamberti_Titus_Palade_Czecho-Slovak_Radio_SO_Rahbari"
INDEX 01 27:30:18
TRACK 10 AUDIO
TITLE "Finale: Holà! Carmen! holà holà!"
PERFORMER "Alperyn_Lamberti_Titus_Palade_Czecho-Slovak_Radio_SO_Rahbari"
INDEX 01 35:11:25
TRACK 11 AUDIO
TITLE "Bel officer, bel officer"
PERFORMER "Alperyn_Lamberti_Titus_Palade_Czecho-Slovak_Radio_SO_Rahbari"
INDEX 01 36:26:10

CD3

REM GENRE Opera
REM DATE 1990
REM DISCID AC0CED0C
REM COMMENT "ExactAudioCopy v1.0b6"
PERFORMER "Alperyn_Lamberti_Titus_Palade_Czecho-Slovak_Radio_SO_Rahbari"
TITLE "Bizet - Carmen, Rahbari CD3"
FILE "Bizet - Carmen, Rahbari CD3.ape" WAVE
TRACK 01 AUDIO
TITLE "Entr'acte"
PERFORMER "Alperyn_Lamberti_Titus_Palade_Czecho-Slovak_Radio_SO_Rahbari"
INDEX 01 00:00:00
TRACK 02 AUDIO
TITLE "Sextet & Chorus: Écoute, écoute, compagnon"
PERFORMER "Alperyn_Lamberti_Titus_Palade_Czecho-Slovak_Radio_SO_Rahbari"
INDEX 01 03:10:35
TRACK 03 AUDIO
TITLE "Trio: Mêlons! coupons!"
PERFORMER "Alperyn_Lamberti_Titus_Palade_Czecho-Slovak_Radio_SO_Rahbari"
INDEX 01 07:55:40
TRACK 04 AUDIO
TITLE "Ensemble & Chorus: Quant au douanier, c'est notre affaire!"
PERFORMER "Alperyn_Lamberti_Titus_Palade_Czecho-Slovak_Radio_SO_Rahbari"
INDEX 01 15:42:23
TRACK 05 AUDIO
TITLE "Je dis que rien m'épourvante"
PERFORMER "Alperyn_Lamberti_Titus_Palade_Czecho-Slovak_Radio_SO_Rahbari"
INDEX 01 18:53:13
TRACK 06 AUDIO
TITLE "Dou: Je suis Escamillo"
PERFORMER "Alperyn_Lamberti_Titus_Palade_Czecho-Slovak_Radio_SO_Rahbari"
INDEX 01 24:12:55
TRACK 07 AUDIO
TITLE "Finale: Holà! holà! José!"
PERFORMER "Alperyn_Lamberti_Titus_Palade_Czecho-Slovak_Radio_SO_Rahbari"
INDEX 01 26:46:48
TRACK 08 AUDIO
TITLE "Moi je viens te chercher!"
PERFORMER "Alperyn_Lamberti_Titus_Palade_Czecho-Slovak_Radio_SO_Rahbari"
INDEX 01 29:50:55
TRACK 09 AUDIO
TITLE "Hélas! José!"
PERFORMER "Alperyn_Lamberti_Titus_Palade_Czecho-Slovak_Radio_SO_Rahbari"
INDEX 01 32:47:25
TRACK 10 AUDIO
TITLE "Entr'acte"
PERFORMER "Alperyn_Lamberti_Titus_Palade_Czecho-Slovak_Radio_SO_Rahbari"
INDEX 01 34:40:13
TRACK 11 AUDIO
TITLE "Chorus: A deux cuartos!"
PERFORMER "Alperyn_Lamberti_Titus_Palade_Czecho-Slovak_Radio_SO_Rahbari"
INDEX 01 37:02:08
TRACK 12 AUDIO
TITLE "March & Chorus: Les voici! les voici!"
PERFORMER "Alperyn_Lamberti_Titus_Palade_Czecho-Slovak_Radio_SO_Rahbari"
INDEX 01 39:16:28



Показать сообщения:    

Текущее время: 11-Дек 13:00

Часовой пояс: UTC + 3


Вы не можете начинать темы
Вы не можете отвечать на сообщения
Вы не можете редактировать свои сообщения
Вы не можете удалять свои сообщения
Вы не можете голосовать в опросах
Вы не можете прикреплять файлы к сообщениям
Вы не можете скачивать файлы