(Opera) Bellini - La Sonnambula / Беллини - Сомнамбула (D'Artegna, Papadjiakou, Orgonasova, Giménez - Netherlands Radio Choir - Netherlands Radio Chamber Orchestra, Zedda) - 1997, APE (image+.cue) lossless


 

[Цитировать]

Vincenzo Bellini - La Sonnambula
Жанр: Opera
Страна-производитель диска: Germany
Год издания диска: 1997
Издатель (лейбл): Naxos
Номер по каталогу: 8.660042-43
Дата записи: 1997
Аудиокодек: APE
Тип рипа: image+.cue
Битрейт аудио: lossless
Продолжительность: 60'20+75'01
Источник: собственный рип
Наличие сканов в содержимом раздачи: да
Треклист:

CD1

1. Act I Scene 1: Coro d'Introduzione - Viva Amina!
2. Act I Scene 1: Cavatina - Tutto e gioia
3. Act I Scene 1: Stretta dell'Introduzione - Viva Amina!
4. Act I Scene 1: Recitativo e Cavatina - Care compagne
5. Act I Scene 1: Recitativo - lo piu di tutti
6. Act I Scene 1: Recitativo e Duetto - Perdona, o mia diletta
7. Act I Scene 1: Recitativo e Cavatina - Domani, appena aggiorni
8. Act I Scene 1: Recitativo e Coro - Contezza del paese avete voi?
9. Act I Scene 1: Recitativo e Duetto - Basta cosi

CD1

1. Act I Scene 2: Scena - Davver, non mi dispiace
2. Act I Scene 2: Recitativo e Duetto, Coro, Quintetto - Che veggio?
3. Act I Scene 2: Stretta del Finale Primo - Non piu nozze
4. Act II Scene 1: Coro d'Introduzione - Qui la selva
5. La sonnambula: Act II Scene 1: Scena ed Aria - Reggimi, o buona madre
6. Act II Scene 2: Scene ed Aria - Lasciami: aver compreso
7. Act II Scene 2: Quartetto - Lasciami: aver compreso
8. Act II Scene 2: Scena ed Aria, Finale - Signor? Che creder deggio?
Исполнители:
Vincenzo Bellini - La Sonnambula
Opera in 2 Acts
Libretto: Felice Romani
Rodolfo - Francesco Ellero D'Artegna, bass
Teresa - Alexandra Papadjiakou, mezzo-soprano
Amina - Luba Orgonasova, soprano
Elvino - Raúl Giménez, tenor
Lisa - Dilbèr, soprano
Alessio - Nanco de Vries, bass
Netherlands Radio Choir
Netherlands Radio Chamber Orchestra
Alberto Zedda

Лог создания рипа

CD1

Exact Audio Copy V1.0 beta 6 from 9. April 2015
EAC extraction logfile from 17. October 2015, 18:57
Organosova_Giménez_d'Artegna_Papadjiakou_Netherlands_Radio_Chamber_Orch_Zedda / Bellini - La Sonnambula, Zedda CD1
Used drive : TSSTcorpCDDVDW SE-208AB Adapter: 1 ID: 1
Read mode : Secure
Utilize accurate stream : Yes
Defeat audio cache : Yes
Make use of C2 pointers : No
Read offset correction : 6
Overread into Lead-In and Lead-Out : No
Fill up missing offset samples with silence : Yes
Delete leading and trailing silent blocks : No
Null samples used in CRC calculations : Yes
Used interface : Native Win32 interface for Win NT & 2000
Used output format : Monkey's Audio Lossless Encoder
Selected bitrate : High Lossless Compression
Quality : High
Add ID3 tag : Yes
Command line compressor : C:\Program Files (x86)\Exact Audio Copy\MAC\MAC.exe
TOC of the extracted CD
Track | Start | Length | Start sector | End sector
---------------------------------------------------------
1 | 0:00.00 | 2:16.02 | 0 | 10201
2 | 2:16.02 | 3:27.55 | 10202 | 25781
3 | 5:43.57 | 4:20.03 | 25782 | 45284
4 | 10:03.60 | 9:14.65 | 45285 | 86899
5 | 19:18.50 | 2:17.04 | 86900 | 97178
6 | 21:35.54 | 13:07.55 | 97179 | 156258
7 | 34:43.34 | 8:35.26 | 156259 | 194909
8 | 43:18.60 | 6:15.60 | 194910 | 223094
9 | 49:34.45 | 10:44.67 | 223095 | 271461
Range status and errors
Selected range
Filename D:\EAC\Bellini - La Sonnambula, Zedda CD1.wav
Peak level 77.1 %
Extraction speed 2.0 X
Range quality 100.0 %
Test CRC C65E96EF
Copy CRC C65E96EF
Copy OK
No errors occurred
AccurateRip summary
Track 1 accurately ripped (confidence 10) [CDE30941] (AR v2)
Track 2 accurately ripped (confidence 10) [8294FFA9] (AR v2)
Track 3 accurately ripped (confidence 10) [BA8279B5] (AR v2)
Track 4 accurately ripped (confidence 10) [8B37C107] (AR v2)
Track 5 accurately ripped (confidence 10) [60627AD2] (AR v2)
Track 6 accurately ripped (confidence 10) [03A8A914] (AR v2)
Track 7 accurately ripped (confidence 10) [1D2AB827] (AR v2)
Track 8 accurately ripped (confidence 10) [2F63CF3E] (AR v2)
Track 9 accurately ripped (confidence 10) [11344397] (AR v2)
All tracks accurately ripped
End of status report
---- CUETools DB Plugin V2.1.6
[CTDB TOCID: 4shTafI2VqZ.LEF7zu.DYVhQvhA-] found
Submit result: 4shTafI2VqZ.LEF7zu.DYVhQvhA- has been confirmed
Track | CTDB Status
1 | (9/9) Accurately ripped
2 | (9/9) Accurately ripped
3 | (9/9) Accurately ripped
4 | (9/9) Accurately ripped
5 | (9/9) Accurately ripped
6 | (9/9) Accurately ripped
7 | (9/9) Accurately ripped
8 | (9/9) Accurately ripped
9 | (9/9) Accurately ripped
==== Log checksum 838D249514D5C2F195B39701F800CE1E4A0371DB18247E3CD61B38E05CACCB8B ====

CD2

Exact Audio Copy V1.0 beta 6 from 9. April 2015
EAC extraction logfile from 17. October 2015, 18:45
Organosova_Giménez_d'Artegna_Papadjiakou_Netherlands_Radio_Chamber_Orch_Zedda / Bellini - La Sonnambula, Zedda CD2
Used drive : TS8XDVDSTRANSCEND Adapter: 1 ID: 2
Read mode : Secure
Utilize accurate stream : Yes
Defeat audio cache : Yes
Make use of C2 pointers : No
Read offset correction : 6
Overread into Lead-In and Lead-Out : No
Fill up missing offset samples with silence : Yes
Delete leading and trailing silent blocks : No
Null samples used in CRC calculations : Yes
Used interface : Native Win32 interface for Win NT & 2000
Used output format : Monkey's Audio Lossless Encoder
Selected bitrate : High Lossless Compression
Quality : High
Add ID3 tag : Yes
Command line compressor : C:\Program Files (x86)\Exact Audio Copy\MAC\MAC.exe
TOC of the extracted CD
Track | Start | Length | Start sector | End sector
---------------------------------------------------------
1 | 0:00.00 | 3:25.60 | 0 | 15434
2 | 3:25.60 | 15:58.37 | 15435 | 87321
3 | 19:24.22 | 3:18.25 | 87322 | 102196
4 | 22:42.47 | 5:45.65 | 102197 | 128136
5 | 28:28.37 | 13:10.30 | 128137 | 187416
6 | 41:38.67 | 5:18.63 | 187417 | 211329
7 | 46:57.55 | 10:03.12 | 211330 | 256566
8 | 57:00.67 | 18:08.35 | 256567 | 338201
Range status and errors
Selected range
Filename D:\EAC\Bellini - La Sonnambula, Zedda CD2.wav
Peak level 83.9 %
Extraction speed 2.2 X
Range quality 100.0 %
Test CRC FB315537
Copy CRC FB315537
Copy OK
No errors occurred
AccurateRip summary
Track 1 accurately ripped (confidence 9) [E6C43C14] (AR v2)
Track 2 accurately ripped (confidence 9) [6ECC203F] (AR v2)
Track 3 accurately ripped (confidence 9) [06B8ACA2] (AR v2)
Track 4 accurately ripped (confidence 9) [CD11C698] (AR v2)
Track 5 accurately ripped (confidence 9) [E1DDE20D] (AR v2)
Track 6 accurately ripped (confidence 9) [6D7DF089] (AR v2)
Track 7 accurately ripped (confidence 9) [0B64A3AF] (AR v2)
Track 8 accurately ripped (confidence 9) [B552F459] (AR v2)
All tracks accurately ripped
End of status report
---- CUETools DB Plugin V2.1.6
[CTDB TOCID: t1Tj5A0iHhChiqJ2XLzNk9fut6Y-] found
Submit result: unrecognized or virtual drive
Track | CTDB Status
1 | (9/9) Accurately ripped
2 | (9/9) Accurately ripped
3 | (9/9) Accurately ripped
4 | (9/9) Accurately ripped
5 | (9/9) Accurately ripped
6 | (9/9) Accurately ripped
7 | (9/9) Accurately ripped
8 | (8/9) Accurately ripped
==== Log checksum 833359E2005D348A564FE20D8E710F978C321B5D4052001387EB7C88D83461AC ====

Содержание индексной карты (.CUE)

CD1

REM GENRE Opera
REM DATE 1992
REM DISCID 6F0E2309
REM COMMENT "ExactAudioCopy v1.0b6"
PERFORMER "Organosova_Giménez_d'Artegna_Papadjiakou_Netherlands_Radio_Chamber_Orch_Zedda"
TITLE "Bellini - La Sonnambula, Zedda CD1"
FILE "Bellini - La Sonnambula, Zedda CD1.ape" WAVE
TRACK 01 AUDIO
TITLE "Act 1: Viva Amina!"
PERFORMER "Organosova_Giménez_d'Artegna_Papadjiakou_Netherlands_Radio_Chamber_Orch_Zedda"
ISRC HKI199511501
INDEX 01 00:00:00
TRACK 02 AUDIO
TITLE "Tutto e gioia"
PERFORMER "Organosova_Giménez_d'Artegna_Papadjiakou_Netherlands_Radio_Chamber_Orch_Zedda"
ISRC HKI199511502
INDEX 01 02:16:02
TRACK 03 AUDIO
TITLE "Viva Amina!"
PERFORMER "Organosova_Giménez_d'Artegna_Papadjiakou_Netherlands_Radio_Chamber_Orch_Zedda"
ISRC HKI199511503
INDEX 01 05:43:57
TRACK 04 AUDIO
TITLE "Care compagne"
PERFORMER "Organosova_Giménez_d'Artegna_Papadjiakou_Netherlands_Radio_Chamber_Orch_Zedda"
ISRC HKI199511504
INDEX 01 10:03:60
TRACK 05 AUDIO
TITLE "Lo piu di tutti"
PERFORMER "Organosova_Giménez_d'Artegna_Papadjiakou_Netherlands_Radio_Chamber_Orch_Zedda"
ISRC HKI199511505
INDEX 01 19:18:50
TRACK 06 AUDIO
TITLE "Perdona, o mia diletta"
PERFORMER "Organosova_Giménez_d'Artegna_Papadjiakou_Netherlands_Radio_Chamber_Orch_Zedda"
ISRC HKI199511506
INDEX 01 21:35:54
TRACK 07 AUDIO
TITLE "Domani, appena aggiorni"
PERFORMER "Organosova_Giménez_d'Artegna_Papadjiakou_Netherlands_Radio_Chamber_Orch_Zedda"
ISRC HKI199511506
INDEX 01 34:43:34
TRACK 08 AUDIO
TITLE "Contezza del paese avete voi?"
PERFORMER "Organosova_Giménez_d'Artegna_Papadjiakou_Netherlands_Radio_Chamber_Orch_Zedda"
ISRC HKI199511508
INDEX 01 43:18:60
TRACK 09 AUDIO
TITLE "Basta Cosi"
PERFORMER "Organosova_Giménez_d'Artegna_Papadjiakou_Netherlands_Radio_Chamber_Orch_Zedda"
ISRC HKI199511509
INDEX 01 49:34:45

CD2

REM GENRE Opera
REM DATE 1992
REM DISCID 56119D08
REM COMMENT "ExactAudioCopy v1.0b6"
PERFORMER "Organosova_Giménez_d'Artegna_Papadjiakou_Netherlands_Radio_Chamber_Orch_Zedda"
TITLE "Bellini - La Sonnambula, Zedda CD2"
FILE "Bellini - La Sonnambula, Zedda CD2.ape" WAVE
TRACK 01 AUDIO
TITLE "Davver, non mi dispiace"
PERFORMER "Organosova_Giménez_d'Artegna_Papadjiakou_Netherlands_Radio_Chamber_Orch_Zedda"
ISRC HKI199611510
INDEX 01 00:00:00
TRACK 02 AUDIO
TITLE "Che veggio?"
PERFORMER "Organosova_Giménez_d'Artegna_Papadjiakou_Netherlands_Radio_Chamber_Orch_Zedda"
ISRC HKI199611511
INDEX 01 03:25:60
TRACK 03 AUDIO
TITLE "Non piu nozze"
PERFORMER "Organosova_Giménez_d'Artegna_Papadjiakou_Netherlands_Radio_Chamber_Orch_Zedda"
ISRC HKI199611512
INDEX 01 19:24:22
TRACK 04 AUDIO
TITLE "Act 2: Qui la selva"
PERFORMER "Organosova_Giménez_d'Artegna_Papadjiakou_Netherlands_Radio_Chamber_Orch_Zedda"
ISRC HKI199611513
INDEX 00 22:37:60
INDEX 01 22:42:47
TRACK 05 AUDIO
TITLE "Reggimi, o bouna madre"
PERFORMER "Organosova_Giménez_d'Artegna_Papadjiakou_Netherlands_Radio_Chamber_Orch_Zedda"
ISRC HKI199611514
INDEX 00 28:26:67
INDEX 01 28:28:37
TRACK 06 AUDIO
TITLE "Lasciami: aver compreso"
PERFORMER "Organosova_Giménez_d'Artegna_Papadjiakou_Netherlands_Radio_Chamber_Orch_Zedda"
ISRC HKI199611515
INDEX 00 41:36:10
INDEX 01 41:38:67
TRACK 07 AUDIO
TITLE "E fia pur vero, Elvino"
PERFORMER "Organosova_Giménez_d'Artegna_Papadjiakou_Netherlands_Radio_Chamber_Orch_Zedda"
ISRC HKI199611516
INDEX 01 46:57:55
TRACK 08 AUDIO
TITLE "Signor? Che creder deggio"
PERFORMER "Organosova_Giménez_d'Artegna_Papadjiakou_Netherlands_Radio_Chamber_Orch_Zedda"
ISRC HKI199611516
INDEX 01 57:00:67



Показать сообщения:    

Текущее время: 10-Дек 17:42

Часовой пояс: UTC + 3


Вы не можете начинать темы
Вы не можете отвечать на сообщения
Вы не можете редактировать свои сообщения
Вы не можете удалять свои сообщения
Вы не можете голосовать в опросах
Вы не можете прикреплять файлы к сообщениям
Вы не можете скачивать файлы