Охотники за сокровищами. Зондеркоманда "Искусство" [07/10/2014, Документальный, SATRip]


Статистика раздачи [Обновить пиров]
Размер:  488 MB   |    Зарегистрирован:  1 год 1 месяц   |    Скачан:  0 раз

Полного источника не было: Никогда

 
   
 
 
 

[Цитировать]

Охотники за сокровищами. Зондеркоманда "Искусство" (фильм второй)
Дата/Год выпуска: 07/10/2014
Страна: Россия
Жанр: Документальный
Продолжительность: 00:38:04
Перевод: Не требуется
Телеканал: ОАО «ТРК ВС РФ «ЗВЕЗДА»
Описание: Перелом в войне изменит налаженный ритм работы «охотников за сокровищами». Теперь вывоз ценностей приобретает массовый характер.
В Германию перевезены уникальные собрания икон из музеев Новгорода и Пскова, сокровища ризницы Псково-Печерского монастыря, библиотеки русских императоров из бывших пригородных резиденций вокруг Ленинграда…
Разобраны и вывезены даже ценные паркеты и шелковые обои из дворцов Пушкина и Петергофа. Известно, что их переправляют в Третий Рейх и прячут в секретных спецхранилищах. Но после победы ни одного из таких тайников в советской зоне оккупации Германии не окажется.
качество: SATRip
формат: AVI
Видео: XviD, 720x400 (1.800), 25.000 fps, ~1654 Kbps, 0.230 bit/pixel
Аудио: 48 kHz, MPEG Layer 3, 2 ch, ~128.00 kbps avg

MediaInfo

Формат : AVI
Формат/Информация : Audio Video Interleave
Размер файла : 488 Мбайт
Продолжительность : 38 м.
Общий поток : 1791 Кбит/сек
Библиотека кодирования : VirtualDub build 35390/release
Видео
Идентификатор : 0
Формат : MPEG-4 Visual
Профиль формата : Advanced Simple@L5
Параметр BVOP формата : Нет
Параметр QPel формата : Нет
Параметр GMC формата : Без точки перехода
Параметр матрицы формата : Default (MPEG)
Идентификатор кодека : XVID
Идентификатор кодека/Подсказка : XviD
Продолжительность : 38 м.
Битрейт : 1654 Кбит/сек
Ширина : 720 пикселей
Высота : 400 пикселей
Соотношение сторон : 16:9
Частота кадров : 25,000 кадров/сек
Цветовое пространство : YUV
Субдискретизация насыщенности : 4:2:0
Битовая глубина : 8 бит
Тип развёртки : Прогрессивная
Метод сжатия : С потерями
Бит/(Пиксели*Кадры) : 0.230
Размер потока : 450 Мбайт (92%)
Библиотека кодирования : XviD 64
Аудио
Идентификатор : 1
Формат : MPEG Audio
Версия формата : Version 1
Профиль формата : Layer 3
Режим : Joint stereo
Идентификатор кодека : 55
Идентификатор кодека/Подсказка : MP3
Продолжительность : 38 м.
Вид битрейта : Постоянный
Битрейт : 128 Кбит/сек
Каналы : 2 канала
Частота : 48,0 КГц
Метод сжатия : С потерями
Размер потока : 34,9 Мбайт (7%)
Выравнивание : Разделение по промежуткам
Продолжительность промежутка : 40 мс. (1,00 видеокадр)
Время предзагрузки промежутка : 500 мс.

Скриншоты

[teatrix.ru].t9090.torrent 
Торрент: Зарегистрирован [ 2015-10-18 20:31 ] · 5E1AC81769BC333EDC0FE02C950710E7A234162B

Скачать .torrent

Скачать

10 KB

Статус: проверено
Скачан: 0 раз
Размер: 488 MB
terms.php



Быстрый ответ

Имя:

      
Для отправки сообщений необходимо включить JavaScript
Показать сообщения:    

Текущее время: 05-Дек 01:24

Часовой пояс: UTC + 3


Вы можете начинать темы
Вы можете отвечать на сообщения
Вы не можете редактировать свои сообщения
Вы не можете удалять свои сообщения
Вы не можете голосовать в опросах
Вы не можете прикреплять файлы к сообщениям
Вы можете скачивать файлы