Охотники за сокровищами. Коллекция Гитлера [06/10/2014, Документальный, SATRip]


Статистика раздачи [Обновить пиров]
Размер:  487 MB   |    Зарегистрирован:  1 год 1 месяц   |    Скачан:  0 раз
Сидов:  1  [  0 KB/s  ]   Подробная статистика пиров
 
   
 
 
 

[Цитировать]

Охотники за сокровищами. Коллекция Гитлера (фильм первый)
Дата/Год выпуска: 06/10/2014
Страна: Россия
Жанр: Документальный
Продолжительность: 00:38:00
Перевод: Не требуется
Телеканал: ОАО «ТРК ВС РФ «ЗВЕЗДА»
Описание: Война для Адольфа Гитлера - не только завоеванные территории, но и захваченные культурные ценности. Их должны разместить в лучшем музее всего мира - именно такой музей Гитлер планирует устроить в городе своего детства - австрийском Линце.
В первые же недели войны отряды "охотников за сокровищами" прибывают в оккупированные советские города - Псков, Новгород, Пушкин, Павловск, Петергоф, и начинают работу. Поначалу в Германию отправляют не все - сборные пункты конфискованных ценностей устраивают в Пскове и Риге.
качество: SATRip
формат: AVI
Видео: XviD, 720x400 (1.800), 25.000 fps, ~1654 Kbps, 0.230 bit/pixel
Аудио: 48 kHz, MPEG Layer 3, 2 ch, ~128.00 kbps avg

MediaInfo

Формат : AVI
Формат/Информация : Audio Video Interleave
Размер файла : 487 Мбайт
Продолжительность : 38 м.
Общий поток : 1792 Кбит/сек
Библиотека кодирования : VirtualDub build 35390/release
Видео
Идентификатор : 0
Формат : MPEG-4 Visual
Профиль формата : Advanced Simple@L5
Параметр BVOP формата : Нет
Параметр QPel формата : Нет
Параметр GMC формата : Без точки перехода
Параметр матрицы формата : Default (MPEG)
Идентификатор кодека : XVID
Идентификатор кодека/Подсказка : XviD
Продолжительность : 38 м.
Битрейт : 1654 Кбит/сек
Ширина : 720 пикселей
Высота : 400 пикселей
Соотношение сторон : 16:9
Частота кадров : 25,000 кадров/сек
Цветовое пространство : YUV
Субдискретизация насыщенности : 4:2:0
Битовая глубина : 8 бит
Тип развёртки : Прогрессивная
Метод сжатия : С потерями
Бит/(Пиксели*Кадры) : 0.230
Размер потока : 450 Мбайт (92%)
Библиотека кодирования : XviD 64
Аудио
Идентификатор : 1
Формат : MPEG Audio
Версия формата : Version 1
Профиль формата : Layer 3
Режим : Joint stereo
Идентификатор кодека : 55
Идентификатор кодека/Подсказка : MP3
Продолжительность : 38 м.
Вид битрейта : Постоянный
Битрейт : 128 Кбит/сек
Каналы : 2 канала
Частота : 48,0 КГц
Метод сжатия : С потерями
Размер потока : 34,8 Мбайт (7%)
Выравнивание : Разделение по промежуткам
Продолжительность промежутка : 40 мс. (1,00 видеокадр)
Время предзагрузки промежутка : 500 мс.

Скриншоты

[teatrix.ru].t9091.torrent 
Торрент: Зарегистрирован [ 2015-10-18 20:31 ] · B8EF1A7D44A7E6BAD836BBAB51F1057F39D77FA6

Скачать .torrent

Скачать

10 KB

Статус: проверено
Скачан: 0 раз
Размер: 487 MB
terms.php



Быстрый ответ

Имя:

      
Для отправки сообщений необходимо включить JavaScript
Показать сообщения:    

Текущее время: 05-Дек 13:25

Часовой пояс: UTC + 3


Вы можете начинать темы
Вы можете отвечать на сообщения
Вы не можете редактировать свои сообщения
Вы не можете удалять свои сообщения
Вы не можете голосовать в опросах
Вы не можете прикреплять файлы к сообщениям
Вы можете скачивать файлы