Роберт Фальк. Автопортрет в красной феске (Александр Шувиков) [2006, документальный, история искусств, DVB]


Статистика раздачи [Обновить пиров]
Размер:  703 MB   |    Зарегистрирован:  1 год 1 месяц   |    Скачан:  2 раза

Полного источника не было: 2 месяца 6 дней

 
   
 
 
 

[Цитировать]

Роберт Фальк
Автопортрет в красной феске- Дата/Год выпуска: 2006
Страна: Россия
Жанр: документальный, история искусств
Продолжительность: 00:38:12
Перевод: Не требуется
Русские субтитры: нет
Режиссер: Александр Шувиков
Телеканал: КультураОписание: О русском художнике первой половины ХХ века Роберте Фальке (1886-1958). В фильме представлены программные произведения Фалька. Зрители познакомятся с эпистолярным наследием художника, в котором в полной мере отражены его взгляды на искусство и предназначение творческого человека.
Фальк учился в школах Константина Юона и Ильи Машкова, в Училище живописи, ваяния и зодчества, где большое влияние на его становление как художника оказали Валентин Серов и Константин Коровин. Жил Фальк в основном в Москве, 1928 - 1937 годы провел в Париже. Во время войны был в эвакуации в Башкирии и Средней Азии. Роберт Фальк входил в художественные объединения "Мир искусства", "Бубновый валет", "Общество московских художников", "Ассоциацию художников революционной России". Среди его самых известных работ – "Дама в красном", "Красная мебель", "Воспоминания", "Дама в белой шали", "Искусствовед А.Г. Габричевский".
"Автопортрет в красной феске" - так называется картина Фалька, написанная им 1957 году.
Участвуют: доктор искусствоведения Дмитрий Сарабьянов, ученица Фалька - старейший российский театральный художник Татьяна Сельвинская.
Доп. информация: DVB-S

качество: DVB
формат: MKV
Видео: MPEG Video 2, 720x576@768x576 (4:3), 25 fps, ~2328 kbps avg, 0.225 bit/pixel
Аудио: MPEG Audio 2, 2 ch, 48 kHz, ~192.00 kbps avg

MediaInfo

ОбщееУникальный идентификатор : 240414735444226681600421774775151008745 (0xB4DE319D4BC9853F8582AA7E2C189BE9)Полное имя : E:\My Torrents 2\[apreder]Robert_Falk_Self_Portrait_with_a_Red_Fez(2006)DVB.mkvФормат : MatroskaВерсия формата : Version 2Размер файла : 703 МбайтПродолжительность : 38 м.Режим общего битрейта : ПеременныйОбщий поток : 2572 Кбит/секДата кодирования : UTC 2014-10-03 16:20:14Программа кодирования : mkvmerge v7.2.0 ('On Every Street') 64bit built on Sep 13 2014 15:52:10Библиотека кодирования : libebml v1.3.0 + libmatroska v1.4.1
ВидеоИдентификатор : 1Формат : MPEG VideoВерсия формата : Version 2Профиль формата : Main@MainПараметр BVOP формата : НетПараметр матрицы формата : ВыборочнаяИдентификатор кодека : V_MPEG2Идентификатор кодека/Информация : MPEG 1 or 2 VideoПродолжительность : 38 м.Вид битрейта : ПеременныйБитрейт : 2328 Кбит/секМаксимальный битрейт : 5177 Кбит/секШирина : 720 пикселейВысота : 576 пикселейСоотношение сторон : 4:3Режим частоты кадров : ПостоянныйЧастота кадров : 25,000 кадров/секСтандарт вещания : PALЦветовое пространство : YUVСубдискретизация насыщенности : 4:2:0Битовая глубина : 8 битТип развёртки : ЧересстрочнаяПорядок развёртки : Верхнее поле первоеМетод сжатия : С потерямиБит/(Пиксели*Кадры) : 0.225Временной код первого кадра : 00:00:00:00Оригинал временного кода : Group of pictures headerРазмер потока : 636 Мбайт (91%)Default : ДаForced : Нет
АудиоИдентификатор : 2Формат : MPEG AudioВерсия формата : Version 1Профиль формата : Layer 2Идентификатор кодека : A_MPEG/L2Идентификатор кодека/Подсказка : MP2Продолжительность : 38 м.Вид битрейта : ПостоянныйБитрейт : 192 Кбит/секКаналы : 2 каналаЧастота : 48,0 КГцМетод сжатия : С потерямиРазмер потока : 52,5 Мбайт (7%)Язык : RussianDefault : ДаForced : Нет

Скриншоты

Резервные скриншоты

-[1'770]
[teatrix.ru].t9092.torrent 
Торрент: Зарегистрирован [ 2015-10-18 20:31 ] · 6BE151B61C1B45C04B95F1F910E65DF37288F94D

Скачать .torrent

Скачать

14 KB

Статус: проверено
Скачан: 2 раз
Размер: 703 MB
terms.php



Быстрый ответ

Имя:

      
Для отправки сообщений необходимо включить JavaScript
Показать сообщения:    

Текущее время: 07-Дек 13:35

Часовой пояс: UTC + 3


Вы можете начинать темы
Вы можете отвечать на сообщения
Вы не можете редактировать свои сообщения
Вы не можете удалять свои сообщения
Вы не можете голосовать в опросах
Вы не можете прикреплять файлы к сообщениям
Вы можете скачивать файлы