Свет и тень. Загадка Караваджо / Caravaggio: Man & Mystery (Ришар Бланшар / Richard Blanshard, Марко Визальберги / Marco Visalberghi) [2012, документально-игровой, история искусств, DVB] DVO (Ред Медиа)


Статистика раздачи [Обновить пиров]
Размер:  705 MB   |    Зарегистрирован:  1 год 1 месяц   |    Скачан:  0 раз

Полного источника не было: Никогда

 
   
 
 
 

[Цитировать]

Свет и тень. Загадка Караваджо
Caravaggio: Man & Mystery- Дата/Год выпуска: 2012
Страна: Италия
Жанр: документально-игровой, история искусств
Продолжительность: 00:54:57
Перевод: Профессиональный (двухголосый закадровый)
Доп. инфо о переводе: ТПО "Ред Медиа"
Русские субтитры: нетРежиссер: Ришар Бланшар / Richard Blanshard, Марко Визальберги / Marco Visalberghi
Телеканал: 365 дней
Описание: Эксперты уверенно называют Караваджо художником, формировавшим основы живописи барокко, другие утверждают, что он стоит вне школ и направлений. Он ставит в тупик тем, как интерпретирует классические религиозные сюжеты. Каждая его картина таит в себе несколько планов и смыслов, которые надо угадывать, но при этом все его произведения рассчитаны на сильное спонтанное, эмоциональное впечатление.
Художник, обвиненный в убийстве, переходит от высот успеха к участи изгнанника - и снова к славе... Караваджо провел жизнь между ярким, почти театральным светом и глубокой тьмой своей эпохи, он искал образы на грани света и теней. Попробуем присмотреться к его загадкам и внезапным озарениям.-В роли Караваджо снялся итальянский актер Лука Лионелло / Luca Lionello, номинант приза "Серебряная лента" Синдиката итальянских киножурналистов за роль Иуды в фильме "Страсти Христовы" (2004) реж. Мела Гибсона.-Доп. информация: DVB-S

качество: DVB
формат: MKV
Видео: MPEG Video 2, 720x576@768x576 (4:3), 25 fps, ~1564 kbps avg, 0.151 bit/pixel
Аудио: MPEG Audio 2, 2 ch, 48 kHz, ~192.00 kbps avg

MediaInfo

ОбщееУникальный идентификатор : 255153461842891252974331867204046412219 (0xBFF4C4EE13145C37951585E668C1D9BB)Полное имя : E:\My Torrents 2\[apreder]Caravaggio_Man_&_Mystery(2012)DVB.mkvФормат : MatroskaВерсия формата : Version 2Размер файла : 705 МбайтПродолжительность : 54 м.Режим общего битрейта : ПеременныйОбщий поток : 1792 Кбит/секДата кодирования : UTC 2014-09-26 14:21:21Программа кодирования : mkvmerge v7.2.0 ('On Every Street') 64bit built on Sep 13 2014 15:52:10Библиотека кодирования : libebml v1.3.0 + libmatroska v1.4.1
ВидеоИдентификатор : 1Формат : MPEG VideoВерсия формата : Version 2Профиль формата : Main@MainПараметр BVOP формата : НетПараметр матрицы формата : ВыборочнаяИдентификатор кодека : V_MPEG2Идентификатор кодека/Информация : MPEG 1 or 2 VideoПродолжительность : 54 м.Вид битрейта : ПеременныйБитрейт : 1564 Кбит/секМаксимальный битрейт : 5112 Кбит/секШирина : 720 пикселейВысота : 576 пикселейСоотношение сторон : 4:3Режим частоты кадров : ПостоянныйЧастота кадров : 25,000 кадров/секСтандарт вещания : PALЦветовое пространство : YUVСубдискретизация насыщенности : 4:2:0Битовая глубина : 8 битТип развёртки : ЧересстрочнаяПорядок развёртки : Верхнее поле первоеМетод сжатия : С потерямиБит/(Пиксели*Кадры) : 0.151Временной код первого кадра : 00:00:00:00Оригинал временного кода : Group of pictures headerРазмер потока : 615 Мбайт (87%)Default : ДаForced : Нет
АудиоИдентификатор : 2Формат : MPEG AudioВерсия формата : Version 1Профиль формата : Layer 2Идентификатор кодека : A_MPEG/L2Идентификатор кодека/Подсказка : MP2Продолжительность : 54 м.Вид битрейта : ПостоянныйБитрейт : 192 Кбит/секКаналы : 2 каналаЧастота : 48,0 КГцМетод сжатия : С потерямиРазмер потока : 75,5 Мбайт (11%)Язык : RussianDefault : ДаForced : Нет

Скриншоты

Резервные скриншоты

-[1'753]
[teatrix.ru].t9093.torrent 
Торрент: Зарегистрирован [ 2015-10-18 20:31 ] · 3A3E01CA2FF39B9672B97D5B6C56FD98F02D7753

Скачать .torrent

Скачать

14 KB

Статус: проверено
Скачан: 0 раз
Размер: 705 MB
terms.php



Быстрый ответ

Имя:

      
Для отправки сообщений необходимо включить JavaScript
Показать сообщения:    

Текущее время: 09-Дек 06:55

Часовой пояс: UTC + 3


Вы можете начинать темы
Вы можете отвечать на сообщения
Вы не можете редактировать свои сообщения
Вы не можете удалять свои сообщения
Вы не можете голосовать в опросах
Вы не можете прикреплять файлы к сообщениям
Вы можете скачивать файлы