Импрессионизм и мода / Импрессионизм – похвала моде / L'Impressionnisme, eloge de la mode (Анн Андре / Anne Andreu, Эмеранс Дюба / Emerance Dubas) [2012, документальный, история искусств, DVB] DVO (СВ-Дубль) + Original (Fre) + Sub (Rus)


Статистика раздачи [Обновить пиров]
Размер:  1.1 GB   |    Зарегистрирован:  1 год 1 месяц   |    Скачан:  0 раз

Полного источника не было: Никогда

 
   
 
 
 

[Цитировать]

Импрессионизм и мода
L'Impressionnisme, éloge de la mode- Год выпуска: 2012
Страна: Франция
Жанр: документальный, история искусств
Продолжительность: 00:51:51
Перевод: Профессиональный (двухголосый закадровый) (Студия "СВ-Дубль" по заказу ГТРК "Культура")
Русские субтитры: есть
Оригинальная аудио дорожка: французский
Режиссер: Анн Андрё / Anne Andreu, Эмеранс Дюба / Émérance Dubas
Телеканал: Культура
Описание: Фильм снят на основе масштабной выставки в парижском музее Орсе "Импрессионизм и мода", проходившей в 2012 годe. Главной его темой стало отображение на полотнах известных художников-импрессионистов повседневной жизни Франции времен Второй империи в контексте моды и стиля той эпохи.
В фильме представлены работы таких известных мастеров как Клод Моне, Эдуард Мане, Эдгар Дега и других, которые стремились изобразить своих современников в повседневной обстановке, передать дух времени, запечатлеть непосредственно с натуры мгновения городской и деревенской жизни. Фотография и мода того времени повлияли на формирование творческой манеры и художественного языка художников, создавших крупнейшее направление в живописи второй половины ХIХ века. (анонс канала "Культура")
Доп. информация: "Культура" DVB-S. Оригинальная звуковая дорожка взята с TV5MONDE DVB-S. Субтитры канала "Культура" (шли в виде телетекста для глухих и слабослышащих зрителей) - идентичны озвучке (редактор субтитров А.Гончарова). За информацию о показе благодарность oQAVqbo.
Участник Festival International du Film sur l'Art (FIFA) 2012.

качество: DVB
формат: MKV
видеокодек: MPEG2
аудиокодек: MP2
Видео: MPEG Video 2, 720x576@768x576 (4:3), 25 fps, ~2582 kbps avg, 0.249 bit/pixel
Аудио 1: Русский (48 kHz, MPEG Audio 2, 2 ch, ~192.00 kbps avg)
Аудио 2: Французский (48 kHz, MPEG Audio 2, 2 ch, ~192.00 kbps avg)
Формат субтитров: Softsub (SRT)

Пример субтитров

100:00:08,839 --> 00:00:10,999ИМПРЕССИОНИЗМ И МОДА
200:00:41,159 --> 00:00:43,879Лето 1867 года
300:00:44,319 --> 00:00:48,679Белый муслин в синий горошек,ярко-синяя тафта, белый жилет,
400:00:49,119 --> 00:00:53,079черный пиджак, гипюровая шаль,лакированные ботинки,
500:00:53,479 --> 00:00:56,719хлопчатобумажная полосатая юбка,объемный кринолин.
600:00:57,199 --> 00:00:59,759Это время, когда импрессионистыстремились
700:01:00,199 --> 00:01:03,759изобразить своих современниковв повседневной обстановке.
800:01:05,319 --> 00:01:08,399Художники ставили своей задачейпередать дух времени,
900:01:08,879 --> 00:01:11,359запечатлеть непосредственнос натуры
1000:01:11,799 --> 00:01:14,439мгновения городской и деревенскойжизни.
1100:01:18,159 --> 00:01:20,479Живопись и фотография дополнялидруг друга
1200:01:20,959 --> 00:01:23,359в стремлении отобразитьокружающий мир.
1300:01:23,879 --> 00:01:27,159Моду начинают рассматривать,описывать, зарисовывать.
1400:01:27,599 --> 00:01:30,319Она становится частьюсовременного искусства.
1500:01:30,759 --> 00:01:33,079Филипп Тьебо, главный кураторвыставки
1600:01:33,519 --> 00:01:35,319"Импрессионизм и мода"
1700:01:35,759 --> 00:01:38,039Вы составляете мнение обобществе, о людях,
1800:01:38,519 --> 00:01:41,479которых видите, по их внешностиили по манере одеваться.
1900:01:42,039 --> 00:01:44,959Импрессионисты, стремясьзапечатлеть дух времени,
2000:01:45,479 --> 00:01:48,999стараются передать то, как живут,как одеваются их современники

MediaInfo

ОбщееУникальный идентификатор : 177015371512494731760636905407327921538 (0x852BEBA3599F283D82FA5DF1010E6582)Полное имя : E:\My Torrents 2\[apreder]L'Impressionnisme_eloge_de_la_mode(2012)DVB.mkvФормат : MatroskaВерсия формата : Version 2Размер файла : 1,10 ГбайтПродолжительность : 51 м.Режим общего битрейта : ПеременныйОбщий поток : 3026 Кбит/секДата кодирования : UTC 2014-09-16 15:11:21Программа кодирования : mkvmerge v7.2.0 ('On Every Street') 64bit built on Sep 13 2014 15:52:10Библиотека кодирования : libebml v1.3.0 + libmatroska v1.4.1
ВидеоИдентификатор : 1Формат : MPEG VideoВерсия формата : Version 2Профиль формата : Main@MainПараметр BVOP формата : НетПараметр матрицы формата : ВыборочнаяИдентификатор кодека : V_MPEG2Идентификатор кодека/Информация : MPEG 1 or 2 VideoПродолжительность : 51 м.Вид битрейта : ПеременныйБитрейт : 2582 Кбит/секМаксимальный битрейт : 5629 Кбит/секШирина : 720 пикселейВысота : 576 пикселейСоотношение сторон : 4:3Режим частоты кадров : ПостоянныйЧастота кадров : 25,000 кадров/секСтандарт вещания : PALЦветовое пространство : YUVСубдискретизация насыщенности : 4:2:0Битовая глубина : 8 битТип развёртки : ЧересстрочнаяПорядок развёртки : Верхнее поле первоеМетод сжатия : С потерямиБит/(Пиксели*Кадры) : 0.249Временной код первого кадра : 00:00:00:00Оригинал временного кода : Group of pictures headerРазмер потока : 958 Мбайт (85%)Default : ДаForced : Нет
Аудио #1Идентификатор : 2Формат : MPEG AudioВерсия формата : Version 1Профиль формата : Layer 2Идентификатор кодека : A_MPEG/L2Идентификатор кодека/Подсказка : MP2Продолжительность : 51 м.Вид битрейта : ПостоянныйБитрейт : 192 Кбит/секКаналы : 2 каналаЧастота : 48,0 КГцМетод сжатия : С потерямиРазмер потока : 71,2 Мбайт (6%)Язык : RussianDefault : ДаForced : Нет
Аудио #2Идентификатор : 3Формат : MPEG AudioВерсия формата : Version 1Профиль формата : Layer 2Идентификатор кодека : A_MPEG/L2Идентификатор кодека/Подсказка : MP2Продолжительность : 51 м.Вид битрейта : ПостоянныйБитрейт : 192 Кбит/секКаналы : 2 каналаЧастота : 48,0 КГцМетод сжатия : С потерямиРазмер потока : 71,2 Мбайт (6%)Язык : FrenchDefault : НетForced : Нет
ТекстИдентификатор : 4Формат : UTF-8Идентификатор кодека : S_TEXT/UTF8Идентификатор кодека/Информация : UTF-8 Plain TextЯзык : RussianDefault : НетForced : Нет

Скриншоты


Резервные скриншоты


-[564]
[teatrix.ru].t9094.torrent 
Торрент: Зарегистрирован [ 2015-10-18 20:31 ] · 1B987E9E95999CA00BC83BB809FC1C051DD20716

Скачать .torrent

Скачать

11 KB

Статус: проверено
Скачан: 0 раз
Размер: 1.1 GB
terms.php



Быстрый ответ

Имя:

      
Для отправки сообщений необходимо включить JavaScript
Показать сообщения:    

Текущее время: 03-Дек 16:46

Часовой пояс: UTC + 3


Вы можете начинать темы
Вы можете отвечать на сообщения
Вы не можете редактировать свои сообщения
Вы не можете удалять свои сообщения
Вы не можете голосовать в опросах
Вы не можете прикреплять файлы к сообщениям
Вы можете скачивать файлы