Надя Рушева (Фахри Мустафаев) [1972, документальный, история искусств, DVB]


Статистика раздачи [Обновить пиров]
Размер:  1.06 GB   |    Зарегистрирован:  1 год 1 месяц   |    Скачан:  0 раз

Полного источника не было: Никогда

 
   
 
 
 

[Цитировать]

Надя Рушева- Дата/Год выпуска: 1972
Страна: СССР
Жанр: документальный, история искусств
Продолжительность: 00:58:02
Перевод: Не требуется
Русские субтитры: нет
Режиссер: Фахри Мустафаев
Телеканал: НостальгияОписание: Текст читал заслуженный артист РСФСР Леонид Хмара
Прошло более 160 выставок её работ в разных странах. Надя оставила после себя огромное художественное наследие — около 12 000 рисунков. Точное их число невозможно подсчитать — значительная доля разошлась в письмах, сотни листов художница подарила друзьям и знакомым, немалое количество работ по разным причинам не вернулось с первых выставок. Многие её рисунки хранятся в музее Льва Толстого в Москве, в музее-филиале имени Нади Рушевой в городе Кызыле, в Пушкинском доме Академии наук в Петербурге, Национальном фонде культуры и Музее Пушкина в Москве.
Утром 6 марта 1969 года Надя Рушева умерла в больнице от кровоизлияния в мозг. Врождённый дефект сосуда головного мозга оборвал жизнь в 17 лет. Врачи ничем не смогли помочь.
Доп. информация: DVB-S

качество: DVB
формат: MKV
Видео: MPEG Video 2, 720x576@768x576 (4:3), 25 fps, ~2360 kbps avg, 0.228 bit/pixel
Аудио: MPEG Audio 2, 2 ch, 48 kHz, ~192.00 kbps avg

MediaInfo

ОбщееУникальный идентификатор : 213344317202081655137578535341380876586 (0xA0809EF3119557C5ABC9124D59E8392A)Полное имя : E:\My Torrents 2\[apreder]Nadya_Rusheva(1972)DVB.mkvФормат : MatroskaВерсия формата : Version 2Размер файла : 1,06 ГбайтПродолжительность : 58 м.Режим общего битрейта : ПеременныйОбщий поток : 2604 Кбит/секДата кодирования : UTC 2014-09-13 13:22:01Программа кодирования : mkvmerge v7.1.0 ('Good Love') 64bit built on Jul 27 2014 13:06:55Библиотека кодирования : libebml v1.3.0 + libmatroska v1.4.1
ВидеоИдентификатор : 1Формат : MPEG VideoВерсия формата : Version 2Профиль формата : Main@MainПараметр BVOP формата : НетПараметр матрицы формата : ВыборочнаяИдентификатор кодека : V_MPEG2Идентификатор кодека/Информация : MPEG 1 or 2 VideoПродолжительность : 58 м.Вид битрейта : ПеременныйБитрейт : 2360 Кбит/секМаксимальный битрейт : 5592 Кбит/секШирина : 720 пикселейВысота : 576 пикселейСоотношение сторон : 4:3Режим частоты кадров : ПостоянныйЧастота кадров : 25,000 кадров/секСтандарт вещания : PALЦветовое пространство : YUVСубдискретизация насыщенности : 4:2:0Битовая глубина : 8 битТип развёртки : ЧересстрочнаяПорядок развёртки : Верхнее поле первоеМетод сжатия : С потерямиБит/(Пиксели*Кадры) : 0.228Временной код первого кадра : 00:00:00:00Оригинал временного кода : Group of pictures headerРазмер потока : 980 Мбайт (91%)Default : ДаForced : Нет
АудиоИдентификатор : 2Формат : MPEG AudioВерсия формата : Version 1Профиль формата : Layer 2Идентификатор кодека : A_MPEG/L2Идентификатор кодека/Подсказка : MP2Продолжительность : 58 м.Вид битрейта : ПостоянныйБитрейт : 192 Кбит/секКаналы : 2 каналаЧастота : 48,0 КГцМетод сжатия : С потерямиРазмер потока : 79,7 Мбайт (7%)Язык : RussianDefault : ДаForced : Нет

Скриншоты

Резервные скриншоты

-[1'720]
[teatrix.ru].t9095.torrent 
Торрент: Зарегистрирован [ 2015-10-18 20:31 ] · 055E2B0E4C30B736160D731A142F29E06993AA7A

Скачать .torrent

Скачать

11 KB

Статус: проверено
Скачан: 0 раз
Размер: 1.06 GB
terms.php



Быстрый ответ

Имя:

      
Для отправки сообщений необходимо включить JavaScript
Показать сообщения:    

Текущее время: 09-Дек 12:41

Часовой пояс: UTC + 3


Вы можете начинать темы
Вы можете отвечать на сообщения
Вы не можете редактировать свои сообщения
Вы не можете удалять свои сообщения
Вы не можете голосовать в опросах
Вы не можете прикреплять файлы к сообщениям
Вы можете скачивать файлы