Непокорная Артемизия / Artemisia Undaunted (Марко Визальберги / Marco Visalberghi) [2011, документально-игровой, история искусств, DVB] DVO (Ред Медиа)


Статистика раздачи [Обновить пиров]
Размер:  747 MB   |    Зарегистрирован:  1 год 1 месяц   |    Скачан:  0 раз

Полного источника не было: Никогда

 
   
 
 
 

[Цитировать]

Непокорная Артемизия
Artemisia Undaunted- Дата/Год выпуска: 2011
Страна: Италия
Жанр: документально-игровой, история искусств
Продолжительность: 00:55:48
Перевод: Профессиональный (двухголосый закадровый)
Доп. инфо о переводе: ТПО "Ред Медиа"
Русские субтитры: нет
Режиссер: Марко Визальберги / Marco VisalberghiТелеканал: 365 дней
В ролях: Сара Риччи / Sara Ricci (Artemisia Gentileschi), Пьетро дель Пьяне / Pietro Delle Piane (Agostino Tassi)
Описание: Артемизия Джентилески (1593-1652/1653) - итальянская художница, чья биография и искусство столь неразрывно переплетены, что без представления об ее яркой и, без сомнения, чрезвычайно драматической жизни невозможно понять искусство этой выдающейся художницы XVII столетия. Эпитет "выдающаяся" здесь вполне уместен: Артемизия вошла в историю искусства не только потому, что принадлежала к слабому полу (что было редким исключением из правил в эпоху, когда историю искусства создавали мужчины), но и потому, что сумела занять в ней равное с творцами-мужчинами место. Роль Артемизии понимали и современники, недаром она была первой женщиной, которую приняли в Академию рисунка во Флоренции. (анонс канала "365 дней")
Доп. информация: DVB-S

качество: DVB
формат: MKV
Видео: MPEG Video 2, 720x576@768x576 (4:3), 25 fps, ~1642 kbps avg, 0.158 bit/pixel
Аудио: MPEG Audio 2, 2 ch, 48 kHz, ~192.00 kbps avg

MediaInfo

ОбщееУникальный идентификатор : 204716850814829489202932696003517536101 (0x9A030803F6E97087816F6677B69ED765)Полное имя : E:\My Torrents 2\[apreder]Artemisia_Undaunted(2011)DVB.mkvФормат : MatroskaВерсия формата : Version 2Размер файла : 747 МбайтПродолжительность : 55 м.Режим общего битрейта : ПеременныйОбщий поток : 1871 Кбит/секДата кодирования : UTC 2014-09-11 15:31:04Программа кодирования : mkvmerge v7.1.0 ('Good Love') 64bit built on Jul 27 2014 13:06:55Библиотека кодирования : libebml v1.3.0 + libmatroska v1.4.1
ВидеоИдентификатор : 1Формат : MPEG VideoВерсия формата : Version 2Профиль формата : Main@MainПараметр BVOP формата : НетПараметр матрицы формата : ВыборочнаяИдентификатор кодека : V_MPEG2Идентификатор кодека/Информация : MPEG 1 or 2 VideoПродолжительность : 55 м.Вид битрейта : ПеременныйБитрейт : 1642 Кбит/секМаксимальный битрейт : 4718 Кбит/секШирина : 720 пикселейВысота : 576 пикселейСоотношение сторон : 4:3Режим частоты кадров : ПостоянныйЧастота кадров : 25,000 кадров/секСтандарт вещания : PALЦветовое пространство : YUVСубдискретизация насыщенности : 4:2:0Битовая глубина : 8 битТип развёртки : ЧересстрочнаяПорядок развёртки : Верхнее поле первоеМетод сжатия : С потерямиБит/(Пиксели*Кадры) : 0.158Временной код первого кадра : 00:00:00:00Оригинал временного кода : Group of pictures headerРазмер потока : 655 Мбайт (88%)Default : ДаForced : Нет
АудиоИдентификатор : 2Формат : MPEG AudioВерсия формата : Version 1Профиль формата : Layer 2Идентификатор кодека : A_MPEG/L2Идентификатор кодека/Подсказка : MP2Продолжительность : 55 м.Вид битрейта : ПостоянныйБитрейт : 192 Кбит/секКаналы : 2 каналаЧастота : 48,0 КГцМетод сжатия : С потерямиРазмер потока : 76,6 Мбайт (10%)Язык : RussianDefault : ДаForced : Нет

Скриншоты


Резервные скриншоты


-[1'714]
[teatrix.ru].t9096.torrent 
Торрент: Зарегистрирован [ 2015-10-18 20:31 ] · 7B494EDF156302B73C40DEF0A40781E6A5DC9445

Скачать .torrent

Скачать

15 KB

Статус: проверено
Скачан: 0 раз
Размер: 747 MB
terms.php



Быстрый ответ

Имя:

      
Для отправки сообщений необходимо включить JavaScript
Показать сообщения:    

Текущее время: 05-Дек 21:34

Часовой пояс: UTC + 3


Вы можете начинать темы
Вы можете отвечать на сообщения
Вы не можете редактировать свои сообщения
Вы не можете удалять свои сообщения
Вы не можете голосовать в опросах
Вы не можете прикреплять файлы к сообщениям
Вы можете скачивать файлы